<?xml version="1.0" standalone="no"?>
<!DOCTYPE svg PUBLIC "-//W3C//DTD SVG 1.1//EN" "http://www.w3.org/Graphics/SVG/1.1/DTD/svg11.dtd" >
<svg xmlns="http://www.w3.org/2000/svg">
<metadata>Generated by IcoMoon</metadata>
<defs>
<font id="icomoon" horiz-adv-x="512">
<font-face units-per-em="512" ascent="480" descent="-32" />
<missing-glyph horiz-adv-x="512" />
<glyph unicode="&#x20;" horiz-adv-x="256" d="" />
<glyph unicode="&#xe600;" glyph-name="office" d="M0-32h256v512h-256v-512zM160 416h64v-64h-64v64zM160 288h64v-64h-64v64zM160 160h64v-64h-64v64zM32 416h64v-64h-64v64zM32 288h64v-64h-64v64zM32 160h64v-64h-64v64zM288 320h224v-32h-224zM288-32h64v128h96v-128h64v288h-224z" />
<glyph unicode="&#xe601;" glyph-name="hammer" d="M7.002 65.512l150.772 150.772c9.334 9.334 24.607 9.334 33.941 0l11.313-11.313 92 92-151.028 151.029h160l71.029-71.029 7.030 7.029h33.941v-33.941l-7.029-7.029 103.029-103.030-80-80-103.029 103.029-92-92 11.313-11.313c9.334-9.334 9.334-24.607 0-33.941l-150.772-150.772c-9.334-9.334-24.607-9.334-33.941 0l-56.568 56.568c-9.335 9.333-9.335 24.607-0.001 33.941z" />
<glyph unicode="&#xe602;" glyph-name="uniE602" d="M373.333 368c0-14.72 11.947-26.667 26.667-26.667s26.667 11.947 26.667 26.667-11.947 26.667-26.667 26.667-26.667-11.947-26.667-26.667zM373.333 197.333c0-14.72 11.947-26.667 26.667-26.667s26.667 11.947 26.667 26.667-11.947 26.667-26.667 26.667-26.667-11.947-26.667-26.667zM0 128c0-23.573 19.093-42.667 42.667-42.667h181.333v-29.44c-5.227-3.52-9.707-8-13.227-13.227l-130.773 0.001c-14.72 0-26.667-11.947-26.667-26.667s11.947-26.667 26.667-26.667h130.773c8.64-12.907 23.253-21.333 39.893-21.333s31.253 8.427 39.893 21.333h141.441c14.72 0 26.667 11.947 26.667 26.667s-11.947 26.667-26.667 26.667h-141.44c-3.52 5.227-8 9.707-13.227 13.227v29.439h192c23.573 0 42.667 19.093 42.667 42.667v309.333c0 23.573-19.093 42.667-42.667 42.667h-426.666c-23.574 0-42.667-19.093-42.667-42.667v-309.333zM76.8 426.667h358.4c13.013 0 23.467-10.454 23.467-23.467v-70.4c0-13.013-10.453-23.467-23.467-23.467h-358.4c-13.013 0-23.467 10.454-23.467 23.467v70.4c0 13.013 10.454 23.467 23.467 23.467zM76.8 256h358.4c13.013 0 23.467-10.453 23.467-23.467v-70.4c0-13.013-10.453-23.467-23.467-23.467l-358.4 0.001c-13.013 0-23.467 10.453-23.467 23.466v70.4c0 13.014 10.454 23.467 23.467 23.467z" />
<glyph unicode="&#xe603;" glyph-name="lightning" d="M192 96l32-32-32-96 96 96-32 32 32 64-96-64zM512 345.167c0 49.146-40 89.124-89.167 89.124-2.396 0-4.771-0.083-7.146-0.27-23.125 28.833-57.978 45.979-95.687 45.979-37.688 0-72.562-17.146-95.688-45.979-2.375 0.187-4.771 0.27-7.188 0.27-49.124 0-89.124-39.979-89.124-89.124 0-5.146 0.688-10.125 1.5-15.042-0.542-0.708-1.188-1.354-1.708-2.083-5.229 0.75-10.479 1.125-15.792 1.125-61.75 0-112-50.25-112-112s50.25-112 112-112c13.688 0 27.084 2.499 39.709 7.333 1.104-0.959 2.416-1.625 3.541-2.562l28.312 18.875c-9.438 6.688-18.25 14.125-25.625 23-13-9.146-28.812-14.646-45.938-14.646-44.188 0-80 35.791-80 80 0 44.167 35.812 80 80 80 10.812 0 21.062-2.209 30.438-6.083 0.562 1.083 1.25 2 1.812 3.042 5.625 10.271 12.562 19.667 20.666 28.042 23.084 23.896 55.167 39 91.084 39 49.709 0 92.334-28.667 113.541-70.083 5.646 2.333 11.668 3.833 17.875 4.833l12.584 1.25c12.334 0 23.875-3.042 34.312-8 11.312-5.417 21.021-13.375 28.646-23.208 10.5-13.521 17.042-30.334 17.042-48.792 0-44.209-35.812-80-80-80-17.125 0-32.916 5.5-45.938 14.646-14-16.875-32.438-29.562-53.146-37.562l-5.979-11.938 18.25-18.25c17.062 6.646 33.021 16.188 47.104 28.438 12.625-4.834 26.021-7.333 39.709-7.333 61.75 0 112 50.249 112 112 0 25.666-9.042 49.083-23.666 68 14.583 15.873 23.667 36.81 23.667 59.998zM465.562 307.542c-18.479 13.438-41 21.625-65.562 21.625-5.312 0-10.562-0.375-15.792-1.125-29.874 40.687-77.020 65.125-128.208 65.125-34.125 0-66.312-11.062-92.938-30.354 7.479 22.853 28.729 39.478 54.062 39.478 7.75 0 15.062-1.562 21.75-4.333 15.188 29.584 45.626 50.042 81.126 50.042s65.958-20.458 81.084-50.042c6.729 2.771 14.083 4.333 21.749 4.333 31.584 0 57.167-25.583 57.167-57.124 0-14.5-5.562-27.563-14.438-37.625z" />
<glyph unicode="&#xe604;" glyph-name="rainy" d="M400 416c-5.312 0-10.562-0.375-15.792-1.125-29.874 40.708-77.020 65.125-128.208 65.125s-98.312-24.417-128.208-65.125c-5.23 0.75-10.48 1.125-15.792 1.125-61.75 0-112-50.25-112-112s50.25-112 112-112c13.688 0 27.084 2.5 39.709 7.333 28.957-25.25 65.791-39.333 104.291-39.333 38.542 0 75.333 14.083 104.291 39.333 12.625-4.833 26.021-7.333 39.709-7.333 61.75 0 112 50.25 112 112s-50.25 112-112 112zM400 224c-17.125 0-32.916 5.5-45.938 14.667-23.478-28.292-58.438-46.667-98.062-46.667s-74.584 18.375-98.062 46.667c-13-9.167-28.813-14.667-45.938-14.667-44.188 0-80 35.812-80 80s35.812 80 80 80c10.812 0 21.062-2.208 30.438-6.083 21.229 41.416 63.853 70.083 113.562 70.083s92.334-28.667 113.541-70.083c9.397 3.875 19.668 6.083 30.459 6.083 44.188 0 80-35.812 80-80s-35.812-80-80-80zM225 0c0-17.688 14.312-32 32-32s32 14.312 32 32-32 64-32 64-32-46.312-32-64zM352 32c0-17.688 14.312-32 32-32s32 14.312 32 32-32 64-32 64-32-46.312-32-64zM96 96c0-17.688 14.312-32 32-32s32 14.312 32 32-32 64-32 64-32-46.312-32-64z" />
<glyph unicode="&#xe605;" glyph-name="cloud" d="M400 320c-5.312 0-10.562-0.375-15.792-1.125-29.874 40.708-77.020 65.125-128.208 65.125s-98.312-24.417-128.208-65.125c-5.23 0.75-10.48 1.125-15.792 1.125-61.75 0-112-50.25-112-112s50.25-112 112-112c13.688 0 27.084 2.5 39.709 7.333 28.957-25.25 65.791-39.333 104.291-39.333 38.542 0 75.333 14.083 104.291 39.333 12.625-4.833 26.021-7.333 39.709-7.333 61.75 0 112 50.25 112 112s-50.25 112-112 112zM400 128c-17.125 0-32.916 5.5-45.938 14.667-23.478-28.291-58.438-46.667-98.062-46.667s-74.584 18.376-98.062 46.667c-13-9.167-28.813-14.667-45.938-14.667-44.188 0-80 35.812-80 80s35.812 80 80 80c10.812 0 21.062-2.208 30.438-6.083 21.229 41.416 63.853 70.083 113.562 70.083s92.334-28.667 113.541-70.083c9.397 3.875 19.668 6.083 30.459 6.083 44.188 0 80-35.812 80-80s-35.812-80-80-80z" />
<glyph unicode="&#xe606;" glyph-name="cloudy" d="M208 416c8.833 0 16 7.167 16 16v32c0 8.833-7.167 16-16 16s-16-7.167-16-16v-32c0-8.833 7.167-16 16-16zM332.438 373.833l22.625 22.625c6.249 6.25 6.249 16.375 0 22.625s-16.375 6.25-22.625 0l-22.625-22.625c-6.25-6.25-6.25-16.375 0-22.625s16.375-6.25 22.625 0zM16 256h32c8.833 0 16 7.167 16 16s-7.167 16-16 16h-32c-8.833 0-16-7.167-16-16s7.167-16 16-16zM352 272c0-8.833 7.167-16 16-16h32c8.833 0 16 7.167 16 16s-7.167 16-16 16h-32c-8.833 0-16-7.167-16-16zM83.541 373.833c6.251-6.25 16.376-6.25 22.625 0 6.251 6.25 6.251 16.375 0 22.625l-22.625 22.625c-6.25 6.25-16.374 6.25-22.625 0-6.25-6.25-6.25-16.375 0-22.625l22.625-22.625zM400 224c-5.312 0-10.562-0.375-15.792-1.125-16.771 22.875-39.124 40.333-64.458 51.5-1.291 60.625-50.812 109.625-111.75 109.625-61.75 0-112-50.25-112-112 0-17.438 4.334-33.75 11.5-48.438-59.625-2.437-107.5-51.374-107.5-111.562 0-61.75 50.25-112 112-112 13.688 0 27.084 2.5 39.709 7.333 28.957-25.25 65.791-39.333 104.291-39.333 38.542 0 75.333 14.083 104.291 39.333 12.625-4.833 26.021-7.333 39.709-7.333 61.75 0 112 50.25 112 112s-50.25 112-112 112zM208 352c39.812 0 72.562-29.167 78.708-67.25-10.021 2-20.249 3.25-30.708 3.25-45.938 0-88.5-19.812-118.375-53.25-5.937 11.167-9.625 23.708-9.625 37.25 0 44.188 35.812 80 80 80zM400 32c-17.125 0-32.916 5.5-45.938 14.667-23.478-28.292-58.438-46.667-98.062-46.667s-74.584 18.375-98.062 46.667c-13-9.167-28.813-14.667-45.938-14.667-44.188 0-80 35.812-80 80s35.812 80 80 80c7.75 0 15.062-1.458 22.125-3.541 2.812-0.792 5.667-1.417 8.312-2.521 4.375 8.562 9.875 16.396 15.979 23.75 23.376 28.124 58.146 46.312 97.584 46.312 10.125 0 19.834-1.458 29.25-3.709 10.562-2.499 20.542-6.291 29.834-11.291 23.291-12.375 42.416-31.542 54.457-55.063 9.397 3.875 19.668 6.063 30.459 6.063 44.188 0 80-35.812 80-80s-35.812-80-80-80z" />
<glyph unicode="&#xe607;" glyph-name="sun" d="M256 336c-61.75 0-112-50.25-112-112s50.25-112 112-112 112 50.25 112 112c0 61.75-50.25 112-112 112zM256 144c-44.188 0-80 35.812-80 80s35.812 80 80 80 80-35.812 80-80-35.812-80-80-80zM256 368c8.833 0 16 7.167 16 16v32c0 8.833-7.167 16-16 16s-16-7.167-16-16v-32c0-8.833 7.167-16 16-16zM256 80c-8.833 0-16-7.167-16-16v-32c0-8.833 7.167-16 16-16s16 7.167 16 16v32c0 8.833-7.167 16-16 16zM380.438 325.833l22.625 22.625c6.25 6.25 6.25 16.375 0 22.625s-16.375 6.25-22.625 0l-22.625-22.625c-6.25-6.25-6.25-16.375 0-22.625s16.375-6.25 22.625 0zM131.562 122.166l-22.625-22.625c-6.25-6.249-6.25-16.374 0-22.624s16.375-6.25 22.625 0l22.625 22.624c6.25 6.271 6.25 16.376 0 22.625-6.249 6.251-16.375 6.272-22.625 0zM112 224c0 8.833-7.167 16-16 16h-32c-8.833 0-16-7.167-16-16s7.167-16 16-16h32c8.833 0 16 7.167 16 16zM448 240h-32c-8.833 0-16-7.167-16-16s7.167-16 16-16h32c8.833 0 16 7.167 16 16s-7.167 16-16 16zM131.541 325.833c6.251-6.25 16.376-6.25 22.625 0 6.251 6.25 6.251 16.375 0 22.625l-22.625 22.625c-6.25 6.25-16.374 6.25-22.625 0-6.25-6.25-6.25-16.375 0-22.625l22.625-22.625zM380.459 122.188c-6.271 6.25-16.376 6.25-22.625 0-6.251-6.25-6.271-16.375 0-22.625l22.625-22.625c6.249-6.25 16.374-6.25 22.624 0s6.25 16.374 0 22.625l-22.624 22.625z" />
<glyph unicode="&#xe608;" glyph-name="issue-closed" d="M352 321.985l-48-48 80-81.985 128 128-48 48-79.375-79.39-32.625 33.375zM256 64c-88.391 0-160 71.625-160 160 0 88.39 71.609 160 160 160 44.188 0 84.188-17.922 113.125-46.875l45.281 45.25c-40.531 40.563-96.531 65.625-158.406 65.625-123.719 0-224-100.281-224-224s100.281-224 224-224c123.719 0 224 100.281 224 224l-100.125-100.125c4.469 5.5-37.5-59.875-123.875-59.875zM288 352h-64v-160h64v160zM224 96h64v64h-64v-64z" />
<glyph unicode="&#xe609;" glyph-name="thumbs-o-down" d="M73.143 347.429q0 7.428-5.428 12.857t-12.857 5.428-12.857-5.428-5.428-12.857 5.428-12.857 12.857-5.428 12.857 5.428 5.428 12.857zM402.286 182.857q0 10-6.143 23.143t-15.286 13.428q4.286 4.857 7.143 13.572t2.857 15.857q0 19.715-15.143 34 5.143 9.143 5.143 19.715t-5 21-13.572 15q1.428 8.572 1.428 16 0 24.285-14 36t-38.857 11.714h-36.572q-37.428 0-97.714-20.857-1.429-0.571-8.286-3t-10.143-3.571-10-3.286-10.857-3.143-9.428-1.857-9-0.857h-9.143v-182.857h9.143q4.572 0 10.143-2.572t11.428-7.714 11-10.143 11.428-12.572 9.857-12.143 9-11.714 6.571-8.572q15.714-19.428 22-26 11.714-12.286 17-31.286t8.714-35.857 10.857-24.286q27.429 0 36.571 13.428t9.143 41.428q0 16.857-13.714 45.857t-13.714 45.572h100.572q14.286 0 25.428 11t11.143 25.572zM438.857 182.572q0-29.428-21.714-51.143t-51.428-21.714h-50.286q13.714-28.286 13.714-54.857 0-33.714-10-53.143-10-19.714-29.143-29t-43.143-9.285q-14.571 0-25.715 10.572-9.714 9.428-15.428 23.428t-7.286 25.857-5 24.143-8.857 18.286q-13.714 14.286-30.571 36.286-28.857 37.428-39.143 44.286h-78.285q-15.143 0-25.857 10.714t-10.714 25.857v182.857q0 15.143 10.714 25.857t25.857 10.714h82.285q6.285 0 39.429 11.428 36.572 12.572 63.714 18.857t57.143 6.286h32q40 0 64.714-22.572t24.428-61.715v-1.428q17.143-22 17.143-50.857 0-6.286-0.857-12.286 10.857-19.143 10.857-41.143 0-10.286-2.572-19.714 14-21.143 14-46.572z" />
<glyph unicode="&#xe60a;" glyph-name="thumbs-o-up" d="M73.143 91.429q0 7.428-5.428 12.857t-12.857 5.428-12.857-5.428-5.428-12.857 5.428-12.857 12.857-5.428 12.857 5.428 5.428 12.857zM402.286 256q0 14.572-11.143 25.572t-25.428 11h-100.572q0 16.572 13.714 45.572t13.714 45.857q0 28-9.143 41.429t-36.572 13.428q-7.428-7.428-10.857-24.286t-8.714-35.857-17-31.285q-6.286-6.572-22-26-1.143-1.429-6.571-8.572t-9-11.714-9.857-12.143-11.429-12.571-11-10.143-11.428-7.714-10.143-2.571h-9.143v-182.857h9.143q3.715 0 9-0.857t9.429-1.857 10.857-3.143 10-3.286 10.143-3.572 8.286-3q60.286-20.857 97.714-20.857h34.572q54.857 0 54.857 47.714 0 7.428-1.428 16 8.572 4.572 13.572 15t5 21-5.143 19.714q15.143 14.286 15.143 34 0 7.143-2.857 15.857t-7.143 13.572q9.143 0.286 15.286 13.428t6.143 23.143zM438.857 256.286q0-25.428-14-46.571 2.572-9.428 2.572-19.714 0-22-10.857-41.143 0.857-6 0.857-12.286 0-28.857-17.143-50.857 0.286-39.714-24.286-62.714t-64.857-23h-36.857q-27.428 0-54.143 6.428t-61.857 18.714q-33.143 11.428-39.428 11.428h-82.285q-15.143 0-25.857 10.714t-10.714 25.857v182.857q0 15.143 10.714 25.857t25.857 10.714h78.285q10.285 6.857 39.143 44.286 16.572 21.428 30.572 36.571 6.857 7.143 10.143 24.429t8.714 36.143 17.715 30.857q11.143 10.571 25.714 10.571 24 0 43.143-9.285t29.143-29 10-53.143q0-26.572-13.714-54.857h50.286q29.714 0 51.428-21.714t21.714-51.143z" />
<glyph unicode="&#xe60b;" glyph-name="screen" d="M480 480h-448c-17.672 0-32-14.312-32-32v-352c0-17.688 14.328-32 32-32h192v-32h-96c-17.672 0-32-14.312-32-32v-32h320v32c0 17.688-14.328 32-32 32h-96v32h192c17.672 0 32 14.312 32 32v352c0 17.688-14.328 32-32 32zM448 128h-384v288h384v-288z" />
<glyph unicode="&#xe60c;" glyph-name="flow-branch" d="M419.84 384c0 33.92-27.495 61.44-61.44 61.44s-61.44-27.52-61.44-61.44c0-24.909 14.848-46.31 36.147-55.962-5.811-49.869-37.939-59.929-84.352-74.419-22.528-7.040-48.717-15.232-70.835-31.155v105.114c21.837 9.447 37.12 31.155 37.12 56.422 0 33.92-27.52 61.44-61.44 61.44-33.946 0-61.44-27.52-61.44-61.44 0-25.267 15.283-46.976 37.12-56.422v-194.381c-21.837-9.395-37.12-31.104-37.12-56.397 0-33.92 27.495-61.44 61.44-61.44 33.92 0 61.44 27.52 61.44 61.44 0 24.909-14.848 46.31-36.173 55.962 5.837 49.869 37.99 59.955 84.377 74.419 47.181 14.745 110.745 34.637 118.63 120.039 22.272 9.267 37.965 31.181 37.965 56.781zM118.144 384c0 19.584 15.872 35.456 35.456 35.456s35.456-15.872 35.456-35.456-15.872-35.456-35.456-35.456-35.456 15.872-35.456 35.456zM153.6 41.344c-19.584 0-35.456 15.872-35.456 35.456s15.872 35.456 35.456 35.456 35.456-15.872 35.456-35.456-15.872-35.456-35.456-35.456zM358.4 348.544c-19.558 0-35.456 15.872-35.456 35.456s15.897 35.456 35.456 35.456 35.456-15.872 35.456-35.456-15.897-35.456-35.456-35.456z" />
<glyph unicode="&#xe60d;" glyph-name="flow-tree" d="M459.495 107.623v58.777c0 35.507-23.501 88.32-88.294 88.32h-51.2c-36.147 0-39.501 17.715-39.68 26.88v71.577c21.837 9.446 37.12 31.155 37.12 56.422 0 33.92-27.495 61.44-61.44 61.44s-61.44-27.52-61.44-61.44c0-25.267 15.283-46.976 37.12-56.422v-71.577c0-6.631-1.92-26.88-39.68-26.88h-51.2c-64.793 0-88.32-52.813-88.32-88.32v-58.778c-21.837-9.421-37.12-31.155-37.12-56.423 0-33.92 27.494-61.44 61.44-61.44 33.92 0 61.44 27.52 61.44 61.44 0 25.267-15.283 47.002-37.12 56.423v58.778c0 6.63 1.92 39.68 39.68 39.68h51.2c15.539 0 28.647 2.355 39.68 6.349v-104.807c-21.837-9.421-37.12-31.155-37.12-56.423 0-33.92 27.494-61.44 61.44-61.44s61.44 27.52 61.44 61.44c0 25.267-15.309 47.002-37.145 56.423v104.807c11.034-3.993 24.141-6.349 39.68-6.349h51.2c36.147 0 39.501-30.515 39.706-39.68v-58.778c-21.837-9.421-37.12-31.155-37.12-56.423 0-33.92 27.495-61.44 61.44-61.44s61.44 27.52 61.44 61.44c0 25.267-15.283 47.002-37.145 56.423zM112.256 51.2c0-19.584-15.872-35.456-35.456-35.456s-35.456 15.872-35.456 35.456 15.872 35.456 35.456 35.456 35.456-15.872 35.456-35.456zM220.544 409.6c0 19.584 15.898 35.456 35.456 35.456s35.43-15.872 35.43-35.456-15.872-35.456-35.43-35.456c-19.559 0-35.456 15.872-35.456 35.456zM291.456 51.2c0-19.584-15.897-35.456-35.43-35.456-19.584 0-35.456 15.872-35.456 35.456s15.872 35.456 35.43 35.456c19.558 0 35.456-15.872 35.456-35.456zM435.2 15.744c-19.558 0-35.456 15.872-35.456 35.456s15.897 35.456 35.456 35.456 35.456-15.872 35.456-35.456-15.897-35.456-35.456-35.456z" />
<glyph unicode="&#xe60e;" glyph-name="folder-open-o" horiz-adv-x="549" d="M508.857 209.429q0 10-15.143 10h-310.857q-11.428 0-24.428-6.143t-20.428-15l-84-103.714q-5.143-6.857-5.143-11.428 0-10 15.143-10h310.857q11.428 0 24.572 6.286t20.286 15.143l84 103.714q5.143 6.286 5.143 11.143zM182.857 256h219.429v45.715q0 11.428-8 19.428t-19.428 8h-164.571q-11.429 0-19.429 8t-8 19.428v18.286q0 11.428-8 19.428t-19.428 8h-91.428q-11.428 0-19.428-8t-8-19.428v-243.714l73.143 90q12.572 15.143 33.143 25t40 9.857zM545.428 209.429q0-17.714-13.143-34.286l-84.286-103.714q-12.286-15.143-33.143-25t-40-9.857h-310.857q-26.285 0-45.143 18.857t-18.857 45.143v274.286q0 26.286 18.857 45.143t45.143 18.857h91.428q26.286 0 45.143-18.857t18.857-45.143v-9.143h155.429q26.286 0 45.143-18.857t18.857-45.143v-45.714h54.857q15.428 0 28.285-7t19.143-20.143q4.285-9.143 4.285-19.428z" />
<glyph unicode="&#xe60f;" glyph-name="folder-o" horiz-adv-x="476" d="M438.857 100.572v201.143q0 11.429-8 19.429t-19.428 8h-201.143q-11.429 0-19.429 8t-8 19.428v18.286q0 11.428-8 19.428t-19.428 8h-91.428q-11.428 0-19.428-8t-8-19.428v-274.286q0-11.428 8-19.428t19.428-8h347.428q11.428 0 19.428 8t8 19.428zM475.428 301.714v-201.143q0-26.286-18.857-45.143t-45.143-18.857h-347.428q-26.285 0-45.143 18.857t-18.857 45.143v274.286q0 26.286 18.857 45.143t45.143 18.857h91.428q26.286 0 45.143-18.857t18.857-45.143v-9.143h192q26.286 0 45.143-18.857t18.857-45.143z" />
<glyph unicode="&#xe610;" glyph-name="repo-forked" horiz-adv-x="384" d="M384 416c0 35.5-28.5 64-64 64s-64-28.5-64-64c0-23.5 13-44.5 32-55.5v-53l-96-106-96 106v53c19 11 32 31.5 32 55.5 0 35.5-28.5 64-64 64s-64-28.5-64-64c0-23.5 13-44.5 32-55.5v-78l128-141v-54.5c-19-11-32-31.5-32-55.5 0-35.5 28.5-64 64-64s64 28.5 64 64c0 23.5-13 44.5-32 55.5v54.5l128 141v78c19 11 32 31.5 32 55.5zM64 447.5c17 0 31-14 31-31s-14-31-31-31-31 14-31 31 14 31 31 31zM192 2c-17 0-31 14-31 31s14 31 31 31 31-14 31-31-14-31-31-31zM320 447.5c17 0 31-14 31-31s-14-31-31-31-31 14-31 31 14 31 31 31z" />
<glyph unicode="&#xe611;" glyph-name="bug" d="M496 240h-82.368c-2.912 21.712-8.816 42.096-16.944 60.688l51.312 51.312c8.848 0 16 7.168 16 16v80c0 8.832-7.152 16-16 16s-16-7.168-16-16v-80l-52.896-35.264c-8.144 12.016-17.328 22.912-27.6 32.080-4.816 64.672-45.728 115.184-95.504 115.184s-90.688-50.512-95.52-115.184c-10.256-9.152-19.456-20.048-27.584-32.080l-52.896 35.264v80c0 8.832-7.168 16-16 16s-16-7.168-16-16v-80c0-8.832 7.168-16 16-16l51.312-51.312c-8.128-18.592-14.032-38.976-16.944-60.688h-82.368c-8.832 0-16-7.152-16-16s7.168-16 16-16h82.288c1.776-13.344 4.752-58.16 8.592-70.4l-46.672-58.368c-6.96-1.76-12.208-7.744-12.208-15.232v-80c0-8.848 7.168-16 16-16s16 7.152 16 16v80l40.336 40.336c27.008-53.056 74-88.336 127.664-88.336 2.704 0 5.328 0.48 8 0.672 2.672-0.192 5.296-0.672 8-0.672 53.664 0 100.656 35.28 127.664 88.336l40.336-40.336v-80c0-8.848 7.152-16 16-16s16 7.152 16 16v80c0 7.488-5.248 13.472-12.192 15.216l-46.688 58.384c3.84 12.256 6.816 57.056 8.592 70.4h82.288c8.848 0 16 7.152 16 16s-7.152 16-16 16z" />
<glyph unicode="&#xe612;" glyph-name="unlocked" d="M42.667 10.667c0-23.573 19.093-42.667 42.667-42.667h341.333c23.573 0 42.667 19.093 42.667 42.667l-0.001 213.333c0 23.573-19.093 42.667-42.667 42.667h-255.999v74.667c0 47.147 38.187 85.333 85.333 85.333s85.333-38.187 85.333-85.333v-5.333c0-14.72 11.947-26.667 26.667-26.667s26.667 11.947 26.667 26.667v5.332c0 76.587-62.080 138.667-138.667 138.667-76.597 0-138.667-62.080-138.667-138.667v-74.667l-32 0.001c-23.573 0-42.667-19.093-42.667-42.667l0.001-213.333zM213.333 149.333c0 23.573 19.093 42.667 42.667 42.667s42.667-19.093 42.667-42.667c0-15.040-7.787-28.267-19.52-35.84 0 0 4.171-25.173 8.853-54.827 0-8.853-7.147-16-16-16h-32c-8.853 0-16 7.147-16 16l8.853 54.827c-11.733 7.574-19.52 20.8-19.52 35.84z" />
<glyph unicode="&#xe613;" glyph-name="locked" d="M117.333 341.333v-74.667l-32 0.001c-23.573 0-42.667-19.093-42.667-42.667v-213.333c0-23.573 19.093-42.667 42.667-42.667h341.333c23.573 0 42.667 19.093 42.667 42.667v213.333c0 23.573-19.093 42.667-42.667 42.667h-32v74.667c0 76.587-62.080 138.667-138.667 138.667-76.586-0.001-138.666-62.081-138.666-138.668zM170.667 266.667v74.667c0 47.147 38.187 85.333 85.333 85.333s85.333-38.187 85.333-85.333v-74.667h-170.666zM213.333 149.333c0 23.573 19.093 42.667 42.667 42.667s42.667-19.093 42.667-42.667c0-15.040-7.787-28.267-19.52-35.84 0 0 4.171-25.173 8.853-54.827 0-8.853-7.147-16-16-16h-32c-8.853 0-16 7.147-16 16l8.853 54.827c-11.733 7.574-19.52 20.8-19.52 35.84z" />
<glyph unicode="&#xe614;" glyph-name="settings" d="M224 416v8c0 13.2-10.8 24-24 24h-80c-13.2 0-24-10.8-24-24v-8h-96v-64h96v-8c0-13.2 10.8-24 24-24h80c13.2 0 24 10.8 24 24v8h288v64h-288zM128 352v64h64v-64h-64zM416 264c0 13.2-10.8 24-24 24h-80c-13.2 0-24-10.8-24-24v-8h-288v-64h288v-8c0-13.2 10.8-24 24-24h80c13.2 0 24 10.8 24 24v8h96v64h-96v8zM320 192v64h64v-64h-64zM224 104c0 13.2-10.8 24-24 24h-80c-13.2 0-24-10.8-24-24v-8h-96v-64h96v-8c0-13.2 10.8-24 24-24h80c13.2 0 24 10.8 24 24v8h288v64h-288v8zM128 32v64h64v-64h-64z" />
<glyph unicode="&#xe615;" glyph-name="move" d="M287.744 385.264v-129.008h128v64l96.256-96.256-96.256-96.24v65.488h-128v-129.008h64.496l-96.24-96.24-96.256 96.24h64v129.008h-128v-64.992l-95.744 95.744 95.744 95.744v-63.488h128v129.008h-62.496l94.752 94.736 94.752-94.736h-63.008z" />
<glyph unicode="&#xe616;" glyph-name="factory" d="M512 288.213c0 11.627-9.6 21.12-21.333 21.12-5.867 0-11.2-2.357-15.040-6.187l-91.627-78.837v63.893c0 11.638-9.6 21.131-21.333 21.131-5.867 0-11.2-2.357-15.040-6.187l-91.627-78.837v63.893c0 11.638-9.6 21.131-21.333 21.131-5.867 0-11.2-2.357-15.040-6.187l-92.587-79.573-20.373 232.96c0 13.014-10.454 23.467-23.467 23.467h-38.4c-13.013 0-23.467-10.453-23.467-23.467l-21.333-445.866c0-23.573 19.093-42.667 42.667-42.667h426.667c23.573 0 42.667 19.093 42.667 42.667l-0.001 277.546zM202.667 150.72v-24.107c0-10.987-8.96-19.947-19.947-19.947h-24.107c-10.986 0.001-19.946 8.961-19.946 19.947v24.107c0 10.987 8.96 19.947 19.947 19.947h24.107c10.986 0 19.946-8.96 19.946-19.947zM330.667 150.72v-24.107c0-10.987-8.96-19.947-19.947-19.947h-24.107c-10.986 0.001-19.946 8.961-19.946 19.947v24.107c0 10.987 8.96 19.947 19.947 19.947h24.107c10.986 0 19.946-8.96 19.946-19.947zM458.667 150.72v-24.107c0-10.987-8.96-19.947-19.947-19.947h-24.107c-10.986 0.001-19.946 8.961-19.946 19.947v24.107c0 10.987 8.96 19.947 19.947 19.947h24.107c10.986 0 19.946-8.96 19.946-19.947z" />
<glyph unicode="&#xe617;" glyph-name="jenkins-head" d="M110.558 270.157c-12.948 5.414-25.403 1.49-27.52-14.080 14.776 22.228 6.951-24.87 15.975-33.075-0.054 9.137 0.481 18.921 3.026 27.733 5.993 20.746 16.261-11.079 21.678-14.188 2.519 12.493-1.802 26.721-13.159 33.61zM260.293 384.486c-31.688 26.473-59.776-41.651-51.149-44.058-0.351 0.098 26.893 27.699 30.334 29.904 6.326 4.050 36.342 0.837 20.815 14.154zM301.022 299.546c-8.3 12.867-16.576 25.554-23.911 39.040-5.414-15.301 22.966-44.831 5.854-46.162-6.838-0.533-30.137 5.209-29.442-5.207 1.346-20.255 65.142-13.793 47.498 12.329-0.051 0.077 19.61-29.031 0 0zM334.2 11.187c-7.577 0-7.577-11.725 0-11.725 7.603 0 7.603 11.725 0 11.725zM340.063-16c-7.577 0-7.577-11.75 0-11.75 7.606 0 7.606 11.75 0 11.75zM352.632 181.504c0 8.748-68.306 12.475-77.159 15.309 7.271-19.505 80.261-47.834 77.159-15.309 0 0.077 1.997-20.941 0 0zM311.519 152.935c-8.555 2.137-47.504 23.317-46.766 25.026-10.419-24.179 82.611-66.654 99.423-26-17.538-0.409-35.202-1.666-52.656 0.973-0.205 0.051 17.433-2.637 0 0zM403.372 242.637c0 9.067-66.558 82.558-62.157 84.377-19.041-8.197 31.396-67.141 37.666-75.174 10.43-13.366 13.422-24.412-5.747-32.653-29.837-12.825-40.678-18.055-55.726 8.474-29.286-38.464 90.688-39.257 85.965 14.976 0 0.051 2.176-24.986 0 0zM410.594 208.154c-18.091-6.776-53.409-12.623-50.56-38.784 32.671 1.063 30.402 31.959 50.56 38.784zM413.255 321.664c-2.222 4.144-4.231 17.255-9.37 17.255-0.387-5.77 10.716-35.53 5.863-37.635-2.255-0.976-27.389-1.923-25.058-6.38 6.274-11.986 25.971-10.752 34.69-3.464 9.856 8.243-2.271 22.402-6.126 30.224-0.028 0.051 8.036-16.307 0 0zM340.063-16c-7.577 0-7.577-11.75 0-11.75 7.606 0 7.606 11.75 0 11.75zM334.2 11.187c-7.577 0-7.577-11.725 0-11.725 7.603 0 7.603 11.725 0 11.725zM413.255 321.664c-2.222 4.144-4.231 17.255-9.37 17.255-0.387-5.77 10.716-35.53 5.863-37.635-2.255-0.976-27.389-1.923-25.058-6.38 6.274-11.986 25.971-10.752 34.69-3.464 9.856 8.243-2.271 22.402-6.126 30.224-0.028 0.051 8.036-16.307 0 0zM410.594 208.154c-18.091-6.776-53.409-12.623-50.56-38.784 32.671 1.063 30.402 31.959 50.56 38.784zM403.372 242.637c0 9.067-66.558 82.558-62.157 84.377-19.041-8.197 31.396-67.141 37.666-75.174 10.43-13.366 13.422-24.412-5.747-32.653-29.837-12.825-40.678-18.055-55.726 8.474-29.286-38.464 90.688-39.257 85.965 14.976 0 0.051 2.176-24.986 0 0zM311.519 152.935c-8.555 2.137-47.504 23.317-46.766 25.026-10.419-24.179 82.611-66.654 99.423-26-17.538-0.409-35.202-1.666-52.656 0.973-0.205 0.051 17.433-2.637 0 0zM352.632 181.504c0 8.748-68.306 12.475-77.159 15.309 7.271-19.505 80.261-47.834 77.159-15.309 0 0.077 1.997-20.941 0 0zM301.022 299.546c-8.3 12.867-16.576 25.554-23.911 39.040-5.414-15.301 22.966-44.831 5.854-46.162-6.838-0.533-30.137 5.209-29.442-5.207 1.346-20.255 65.142-13.793 47.498 12.329-0.051 0.077 19.61-29.031 0 0zM260.293 384.486c-31.688 26.473-59.776-41.651-51.149-44.058-0.351 0.098 26.893 27.699 30.334 29.904 6.326 4.050 36.342 0.837 20.815 14.154zM110.558 270.157c-12.948 5.414-25.403 1.49-27.52-14.080 14.776 22.228 6.951-24.87 15.975-33.075-0.054 9.137 0.481 18.921 3.026 27.733 5.993 20.746 16.261-11.079 21.678-14.188 2.519 12.493-1.802 26.721-13.159 33.61zM413.255 321.664c-2.222 4.144-4.231 17.255-9.37 17.255-0.387-5.77 10.716-35.53 5.863-37.635-2.255-0.976-27.389-1.923-25.058-6.38 6.274-11.986 25.971-10.752 34.69-3.464 9.856 8.243-2.271 22.402-6.126 30.224-0.028 0.051 8.036-16.307 0 0zM410.594 208.154c-18.091-6.776-53.409-12.623-50.56-38.784 32.671 1.063 30.402 31.959 50.56 38.784zM403.372 242.637c0 9.067-66.558 82.558-62.157 84.377-19.041-8.197 31.396-67.141 37.666-75.174 10.43-13.366 13.422-24.412-5.747-32.653-29.837-12.825-40.678-18.055-55.726 8.474-29.286-38.464 90.688-39.257 85.965 14.976 0 0.051 2.176-24.986 0 0zM311.519 152.935c-8.555 2.137-47.504 23.317-46.766 25.026-10.419-24.179 82.611-66.654 99.423-26-17.538-0.409-35.202-1.666-52.656 0.973-0.205 0.051 17.433-2.637 0 0zM352.632 181.504c0 8.748-68.306 12.475-77.159 15.309 7.271-19.505 80.261-47.834 77.159-15.309 0 0.077 1.997-20.941 0 0zM340.063-16c-7.577 0-7.577-11.75 0-11.75 7.606 0 7.606 11.75 0 11.75zM334.2 11.187c-7.577 0-7.577-11.725 0-11.725 7.603 0 7.603 11.725 0 11.725zM301.022 299.546c-8.3 12.867-16.576 25.554-23.911 39.040-5.414-15.301 22.966-44.831 5.854-46.162-6.838-0.533-30.137 5.209-29.442-5.207 1.346-20.255 65.142-13.793 47.498 12.329-0.051 0.077 19.61-29.031 0 0zM260.293 384.486c-31.688 26.473-59.776-41.651-51.149-44.058-0.351 0.098 26.893 27.699 30.334 29.904 6.326 4.050 36.342 0.837 20.815 14.154zM110.558 270.157c-12.948 5.414-25.403 1.49-27.52-14.080 14.776 22.228 6.951-24.87 15.975-33.075-0.054 9.137 0.481 18.921 3.026 27.733 5.993 20.746 16.261-11.079 21.678-14.188 2.519 12.493-1.802 26.721-13.159 33.61zM334.2 11.187c-7.577 0-7.577-11.725 0-11.725 7.603 0 7.603 11.725 0 11.725zM340.063-16c-7.577 0-7.577-11.75 0-11.75 7.606 0 7.606 11.75 0 11.75zM110.558 270.157c-12.948 5.414-25.403 1.49-27.52-14.080 14.776 22.228 6.951-24.87 15.975-33.075-0.054 9.137 0.481 18.921 3.026 27.733 5.993 20.746 16.261-11.079 21.678-14.188 2.519 12.493-1.802 26.721-13.159 33.61zM260.293 384.486c-31.688 26.473-59.776-41.651-51.149-44.058-0.351 0.098 26.893 27.699 30.334 29.904 6.326 4.050 36.342 0.837 20.815 14.154zM301.022 299.546c-8.3 12.867-16.576 25.554-23.911 39.040-5.414-15.301 22.966-44.831 5.854-46.162-6.838-0.533-30.137 5.209-29.442-5.207 1.346-20.255 65.142-13.793 47.498 12.329-0.051 0.077 19.61-29.031 0 0zM352.632 181.504c0 8.748-68.306 12.475-77.159 15.309 7.271-19.505 80.261-47.834 77.159-15.309 0 0.077 1.997-20.941 0 0zM311.519 152.935c-8.555 2.137-47.504 23.317-46.766 25.026-10.419-24.179 82.611-66.654 99.423-26-17.538-0.409-35.202-1.666-52.656 0.973-0.205 0.051 17.433-2.637 0 0zM403.372 242.637c0 9.067-66.558 82.558-62.157 84.377-19.041-8.197 31.396-67.141 37.666-75.174 10.43-13.366 13.422-24.412-5.747-32.653-29.837-12.825-40.678-18.055-55.726 8.474-29.286-38.464 90.688-39.257 85.965 14.976 0 0.051 2.176-24.986 0 0zM410.594 208.154c-18.091-6.776-53.409-12.623-50.56-38.784 32.671 1.063 30.402 31.959 50.56 38.784zM413.255 321.664c-2.222 4.144-4.231 17.255-9.37 17.255-0.387-5.77 10.716-35.53 5.863-37.635-2.255-0.976-27.389-1.923-25.058-6.38 6.274-11.986 25.971-10.752 34.69-3.464 9.856 8.243-2.271 22.402-6.126 30.224-0.028 0.051 8.036-16.307 0 0zM110.558 270.157c-12.948 5.414-25.403 1.49-27.52-14.080 14.776 22.228 6.951-24.87 15.975-33.075-0.054 9.137 0.481 18.921 3.026 27.733 5.993 20.746 16.261-11.079 21.678-14.188 2.519 12.493-1.802 26.721-13.159 33.61zM410.594 208.154c-18.091-6.776-53.409-12.623-50.56-38.784 32.671 1.063 30.402 31.959 50.56 38.784zM352.632 181.504c0 8.748-68.306 12.475-77.159 15.309 7.271-19.505 80.261-47.834 77.159-15.309 0 0.077 1.997-20.941 0 0zM349.074 168.115c1.203 0.026 2.534 0.077 3.993 0.154-1.331-0.077-2.663-0.128-3.993-0.154zM311.519 152.935c-8.555 2.137-47.504 23.317-46.766 25.026-10.419-24.179 82.611-66.654 99.423-26-17.538-0.409-35.202-1.666-52.656 0.973-0.205 0.051 17.433-2.637 0 0zM413.255 321.664c-2.222 4.144-4.231 17.255-9.37 17.255-0.387-5.77 10.716-35.53 5.863-37.635-2.255-0.976-27.389-1.923-25.058-6.38 6.274-11.986 25.971-10.752 34.69-3.464 9.856 8.243-2.271 22.402-6.126 30.224-0.028 0.051 8.036-16.307 0 0zM301.022 299.546c-8.3 12.867-16.576 25.554-23.911 39.040-5.414-15.301 22.966-44.831 5.854-46.162-6.838-0.533-30.137 5.209-29.442-5.207 1.346-20.255 65.142-13.793 47.498 12.329-0.051 0.077 19.61-29.031 0 0zM260.293 384.486c-31.688 26.473-59.776-41.651-51.149-44.058-0.351 0.098 26.893 27.699 30.334 29.904 6.326 4.050 36.342 0.837 20.815 14.154zM403.372 242.637c0 9.067-66.558 82.558-62.157 84.377-19.041-8.197 31.396-67.141 37.666-75.174 10.43-13.366 13.422-24.412-5.747-32.653-29.837-12.825-40.678-18.055-55.726 8.474-29.286-38.464 90.688-39.257 85.965 14.976 0 0.051 2.176-24.986 0 0zM334.2 11.187c-7.577 0-7.577-11.725 0-11.725 7.603 0 7.603 11.725 0 11.725zM340.063-16c-7.577 0-7.577-11.75 0-11.75 7.606 0 7.606 11.75 0 11.75zM110.558 270.157c-12.948 5.414-25.403 1.49-27.52-14.080 14.776 22.228 6.951-24.87 15.975-33.075-0.054 9.137 0.481 18.921 3.026 27.733 5.993 20.746 16.261-11.079 21.678-14.188 2.519 12.493-1.802 26.721-13.159 33.61zM222.61 37.606c0.154-1.639 0.41-3.274 0.743-4.941-0.307 1.639-0.563 3.277-0.743 4.941zM260.293 384.486c-31.688 26.473-59.776-41.651-51.149-44.058-0.351 0.098 26.893 27.699 30.334 29.904 6.326 4.050 36.342 0.837 20.815 14.154zM301.022 299.546c-8.3 12.867-16.576 25.554-23.911 39.040-5.414-15.301 22.966-44.831 5.854-46.162-6.838-0.533-30.137 5.209-29.442-5.207 1.346-20.255 65.142-13.793 47.498 12.329-0.051 0.077 19.61-29.031 0 0zM334.2 11.187c-7.577 0-7.577-11.725 0-11.725 7.603 0 7.603 11.725 0 11.725zM340.063-16c-7.577 0-7.577-11.75 0-11.75 7.606 0 7.606 11.75 0 11.75zM311.519 152.935c-8.555 2.137-47.504 23.317-46.766 25.026-10.419-24.179 82.611-66.654 99.423-26-17.538-0.409-35.202-1.666-52.656 0.973-0.205 0.051 17.433-2.637 0 0zM352.632 181.504c0 8.748-68.306 12.475-77.159 15.309 7.271-19.505 80.261-47.834 77.159-15.309 0 0.077 1.997-20.941 0 0zM349.074 168.115c1.203 0.026 2.534 0.077 3.993 0.154-1.331-0.077-2.663-0.128-3.993-0.154zM403.372 242.637c0 9.067-66.558 82.558-62.157 84.377-19.041-8.197 31.396-67.141 37.666-75.174 10.43-13.366 13.422-24.412-5.747-32.653-29.837-12.825-40.678-18.055-55.726 8.474-29.286-38.464 90.688-39.257 85.965 14.976 0 0.051 2.176-24.986 0 0zM410.594 208.154c-18.091-6.776-53.409-12.623-50.56-38.784 32.671 1.063 30.402 31.959 50.56 38.784zM413.255 321.664c-2.222 4.144-4.231 17.255-9.37 17.255-0.387-5.77 10.716-35.53 5.863-37.635-2.255-0.976-27.389-1.923-25.058-6.38 6.274-11.986 25.971-10.752 34.69-3.464 9.856 8.243-2.271 22.402-6.126 30.224-0.028 0.051 8.036-16.307 0 0zM222.61 37.606c0.154-1.639 0.41-3.274 0.743-4.941-0.307 1.639-0.563 3.277-0.743 4.941zM413.255 321.664c-2.222 4.144-4.231 17.255-9.37 17.255-0.387-5.77 10.716-35.53 5.863-37.635-2.255-0.976-27.389-1.923-25.058-6.38 6.274-11.986 25.971-10.752 34.69-3.464 9.856 8.243-2.271 22.402-6.126 30.224-0.028 0.051 8.036-16.307 0 0zM410.565 208.154c-17.866-7.962-53.476-11.784-50.532-38.784 25.183 0.819 39.943 18.105 50.532 38.784zM357.701 201.523c14.254 4.457 59.323 22.090 44.053 45.072-5.074 7.642-62.756 79.504-60.539 80.42-19.041-8.197 31.396-67.141 37.666-75.174 10.43-13.366 13.422-24.412-5.747-32.653-29.837-12.825-40.678-18.055-55.726 8.474-22.303-29.289 21.123-32.154 40.294-26.137 19.481 6.093-16.154-5.069 0 0zM349.074 168.115c1.203 0.026 2.534 0.077 3.993 0.154-1.331-0.077-2.663-0.128-3.993-0.154zM352.632 181.504c0 8.748-68.306 12.475-77.159 15.309 7.271-19.505 80.261-47.834 77.159-15.309 0 0.077 1.997-20.941 0 0zM311.519 152.935c-8.555 2.137-47.504 23.317-46.766 25.026-10.419-24.179 82.611-66.654 99.423-26-17.538-0.409-35.202-1.666-52.656 0.973-0.205 0.051 17.433-2.637 0 0zM301.022 299.546c-8.3 12.867-16.576 25.554-23.911 39.040-5.414-15.301 22.966-44.831 5.854-46.162-6.838-0.533-30.137 5.209-29.442-5.207 1.346-20.255 65.142-13.793 47.498 12.329-0.051 0.077 19.61-29.031 0 0zM260.293 384.486c-31.688 26.473-59.776-41.651-51.149-44.058-0.351 0.098 26.893 27.699 30.334 29.904 6.326 4.050 36.342 0.837 20.815 14.154zM110.558 270.157c-12.948 5.414-25.403 1.49-27.52-14.080 14.776 22.228 6.951-24.87 15.975-33.075-0.054 9.137 0.481 18.921 3.026 27.733 5.993 20.746 16.261-11.079 21.678-14.188 2.519 12.493-1.802 26.721-13.159 33.61zM461.228 76.39c-9.098 35.917-72.24 40.363-44.874 84.608 31.777 51.402 33.918 122.563 23.749 180.464-22.485 128.038-152.12 168.397-262.784 121.915-53.048-22.285-115.553-76.329-112.353-138.368 1.613-31.255-14.892-60.928-8.809-91.070 2.962-14.669 9.234-29.007 19.638-39.969 8.028-8.433 27.776-11.21 32.422-21.284 4.59-9.956 21.2-45.079 14.062-54.2-14.507-18.545-59.541-38.341-80.921-48.993-28.093-13.993-27.438-32.899-17.303-60.805 6.569-18.089 8.036-47.982 33.362-40.689-11.333 34.025-31.887 68.322 2.191 91.382 32.551 22.029 63.35 56.784 94.423 20.769-20.593-9.211-95.232-26.483-88.858-55.296-0.476-2.988 7.921-33.572 5.215-22.175 9.459-39.842 8.074-34.683 46.031-34.683 12.121 0 24.243 0 36.365 0 21.248 0 4.327 21.712 19.166 24.525 5.832 1.108 1.536-25.273 1.613-24.525 16.886 0 33.772 0 50.657 0 35.011 0 20.749 2.084 43.973 22.666 1.165 1.031 19.213 12.567 19.213 14.71 12.342 12.342 28.352-40.512 42.88-37.376-7.378 17.375-15.060 34.937-27.241 49.613 10.115 10.649 29.89 12.306 42.365 5.289 17.984-10.112 10.877-39.063 8.092-54.902 3.712 10.46 3.722 46.82 20.483 51.684 37.476 10.875 5.291-44.834 1.559-51.684 17.943 0 35.886 0 53.824 0 9.354 0.003 35.438 94.303 31.859 108.393-10.163 40.115 5.197-20.454 0 0zM185.464 449.664c-0.236 0.051 9.677 3.715 9.762-1.82 0.069-4.692-78.904-55.728-89.582-57.264 14.398 31.473 48.387 49.139 79.821 59.085zM93.918 375.834c14.505 11.589 34.8 8.412 51.917 8.55-0.732-15.363-35.264-10.778-45.622-18.384-25.823-18.954 0.182-53.038-20.938-67.376-8.77 26.75-9.579 58.135 14.643 77.209 0.256 0.205-24.576-19.353 0 0zM210.859 62.003c-5.327 0.839-47.849 11.743-37.095 22.759 11.113-11.111 40.213 1.485 37.094-22.759zM165.726 98.611c-17.79 11.361-30.992 35.497-38.013 54.684-2.406 6.577 3.702 53.322 4.659 52.738-4.936 3.010-22.692-10.425-31.573-8.064-13.145 3.495-22.592 16.889-27.581 28.624-9.328 21.939-3.115 57.59 25.922 60.047 27.016 2.286 21.401-32.018 42.048-34.020 28.611-2.775 6.879 48.996 8.034 61.55 6.339 68.91 5.353 107.784 73.18 140.050 74.13 35.394 131.935-10.432 181.553-60.058-13.097 3.87-35.33-1.236-31.844-19.481 42.926 41.958 58.279-53.453 59.111-73.984 1.792-51.325-6.162-105.014-34.534-148.864-60.995-94.397-156.078-60.659-208.537 19.379 1.229-34.736 35.154-63.683 63.975-77.747-31.813 7.378-53.315-15.954-86.397 5.146-18.918 12.083 11.879-7.577 0 0zM279.954 45.414c46.318-1.925-6.5-39.309-22.81-46.211-39.422-16.694-36.262 60.941-34.458 67.126 9.403 36.767 58.109-8.423 78.413-9.984-0.379-9.904-15.373-8.197-21.146-10.931 49.36-2.048 5.786 2.739 0 0zM286.098 79.027c5.635 3.63 50.142 5.376 58.24 6.016-20.872-15.060-34.471-24.668-58.24-6.016 2.304 1.485 7.501-5.885 0 0zM310.238 42.394c-0.653 7.166 2.988 26.399 14.848 14.646 12.409-10.673-9.183-31.591-14.848-14.646zM393.055 44.851c-1.116-49.59-82.399 2.614-36.915 7.987-21.663 10.603-23.288 11.005 1.27 26.729 27.115 17.365 36.206-11.195 35.645-34.716-0.538-23.936 0.281 11.878 0 0zM444.844 54.582c-13.502 10.068-58.258 48.819-71.654 44.541 18.202 26.553 25.459 12.925 43.93-4.25 11.682-10.911 31.101-20.985 27.725-40.292-8.752 6.526 3.379 19.325 0 0zM409.003 286.183c17.538 6.003 7.741 52.736-5.12 52.736-0.387-5.77 10.716-35.53 5.863-37.635-2.255-0.976-27.389-1.923-25.058-6.38 3.587-6.846 17.36-11.102 24.315-8.722 23.859 8.166-10.624-3.635 0 0zM410.565 208.154c-17.866-7.962-53.476-11.784-50.532-38.784 25.183 0.819 39.943 18.105 50.532 38.784zM357.701 201.523c14.254 4.457 59.323 22.090 44.053 45.072-5.074 7.642-62.756 79.504-60.539 80.42-19.041-8.197 31.396-67.141 37.666-75.174 10.43-13.366 13.422-24.412-5.747-32.653-29.837-12.825-40.678-18.055-55.726 8.474-22.303-29.289 21.123-32.154 40.294-26.137 19.481 6.093-16.154-5.069 0 0zM353.067 168.269c-1.331-0.077-2.663-0.128-3.993-0.154 1.203 0.026 2.537 0.077 3.993 0.154zM352.606 181.786c0 8.207-68.572 12.288-77.133 15.027 7.547-20.247 77.133-48.286 77.133-15.027zM311.519 152.935c-8.555 2.137-47.504 23.317-46.766 25.026-10.419-24.179 82.611-66.654 99.423-26-17.538-0.409-35.202-1.666-52.656 0.973-0.205 0.051 17.433-2.637 0 0zM254.866 292.736c-10.032-19.492 41.91-22.93 48.679-5.461 5.212 13.447-22.485 44.050-26.432 51.31-2.683-7.583 10.606-45.666 12.144-45.1-4.216-1.552-33.713 0.825-34.391-0.75-12.493-24.269 0.077 0.179 0 0zM209.144 340.429c2.288-0.64 27.136 31.488 36.454 32.691 9.173 1.216 26.503-1.928 14.49 11.546-28.081 29.486-61.315-41.341-50.944-44.237-2.662 0.743-14.131 3.942 0 0zM223.352 32.666c-0.307 1.639-0.563 3.277-0.743 4.941 0.154-1.639 0.41-3.277 0.743-4.941zM110.558 270.157c-12.948 5.414-25.403 1.49-27.52-14.080 14.776 22.228 6.951-24.87 15.975-33.075-0.054 9.137 0.481 18.921 3.026 27.733 5.993 20.746 16.261-11.079 21.678-14.188 2.519 12.493-1.802 26.721-13.159 33.61zM110.558 270.157c-12.948 5.414-25.403 1.49-27.52-14.080 14.776 22.228 6.951-24.87 15.975-33.075-0.054 9.137 0.481 18.921 3.026 27.733 5.993 20.746 16.261-11.079 21.678-14.188 2.519 12.493-1.802 26.721-13.159 33.61zM260.293 384.486c-31.688 26.473-59.776-41.651-51.149-44.058-0.351 0.098 26.893 27.699 30.334 29.904 6.326 4.050 36.342 0.837 20.815 14.154zM301.022 299.546c-8.3 12.867-16.576 25.554-23.911 39.040-5.414-15.301 22.966-44.831 5.854-46.162-6.838-0.533-30.137 5.209-29.442-5.207 1.346-20.255 65.142-13.793 47.498 12.329-0.051 0.077 19.61-29.031 0 0zM311.519 152.935c-8.555 2.137-47.504 23.317-46.766 25.026-10.419-24.179 82.611-66.654 99.423-26-17.538-0.409-35.202-1.666-52.656 0.973-0.205 0.051 17.433-2.637 0 0zM352.632 181.504c0 8.748-68.306 12.475-77.159 15.309 7.271-19.505 80.261-47.834 77.159-15.309 0 0.077 1.997-20.941 0 0zM349.074 168.115c1.203 0.026 2.534 0.077 3.993 0.154-1.331-0.077-2.663-0.128-3.993-0.154zM403.372 242.637c0 9.067-66.558 82.558-62.157 84.377-19.041-8.197 31.396-67.141 37.666-75.174 10.43-13.366 13.422-24.412-5.747-32.653-29.837-12.825-40.678-18.055-55.726 8.474-29.286-38.464 90.688-39.257 85.965 14.976 0 0.051 2.176-24.986 0 0zM410.594 208.154c-18.091-6.776-53.409-12.623-50.56-38.784 32.671 1.063 30.402 31.959 50.56 38.784zM413.255 321.664c-2.222 4.144-4.231 17.255-9.37 17.255-0.387-5.77 10.716-35.53 5.863-37.635-2.255-0.976-27.389-1.923-25.058-6.38 6.274-11.986 25.971-10.752 34.69-3.464 9.856 8.243-2.271 22.402-6.126 30.224-0.028 0.051 8.036-16.307 0 0zM222.61 37.606c0.154-1.639 0.41-3.274 0.743-4.941-0.307 1.639-0.563 3.277-0.743 4.941zM223.916 70.656c-0.043-0.069 0.12 0.118 0 0 0 0 0.025 0.026 0 0zM222.61 37.606c0.154-1.639 0.41-3.274 0.743-4.941-0.307 1.639-0.563 3.277-0.743 4.941zM287.122 5.197c-0.313-0.341 0.732 0.474 0 0-0.026-0.026 0.077 0.051 0 0zM334.2 11.187c-7.577 0-7.577-11.725 0-11.725 7.603 0 7.603 11.725 0 11.725zM340.063-16c-7.577 0-7.577-11.75 0-11.75 7.606 0 7.606 11.75 0 11.75zM353.375 30.131c0.292-0.072 0.873-0.141 0 0 0 0 0.156-0.026 0 0zM353.861 30.003c0.379-0.074 1.861-0.279 0 0 0.128-0.026 0.333-0.051 0 0zM414.331 77.261c0.067-0.059 0.305-0.305 0 0 0 0 0.048-0.051 0 0z" />
<glyph unicode="&#xe618;" glyph-name="jenkins" d="M152.881 342.978c-8.282 4.939-16.329-0.065-17.567-9.079 1.951 2.942 4.653 4.162 8.111 3.661-3.341-6.495-3.823-19.462 2.135-24.873-0.010 2.688 0.548 31.632 9.207 19.582 2.192-3.050 3.203-8.928 6.636-10.897 1.627 8.085-1.141 17.186-8.521 21.606-3.497 2.085 5.894-3.53 0 0zM248.777 416.43c-18.444 15.587-41.647-25.912-32.594-28.438-1.696 0.473 17.41 20.19 23.383 20.969 2.749 0.364 19.689-1.333 9.21 7.47-7.847 6.632 1.74-1.461 0 0zM274.981 361.957c-5.863 8.48-10.228 15.688-15.203 24.856-3.209-9.039 4.17-20.297 8.716-27.532 2.216-3.62-22.928-1.765-22.984-1.872-8.049-15.615 42.512-14.231 29.472 4.548-1.363 1.97 1.642-2.364 0 0zM296.389 176.848c-4.854 0-4.861-7.519 0-7.519 4.882 0 4.877 7.519 0 7.519zM300.149 159.412c-4.86 0-4.865-7.536 0-7.536 4.88 0 4.877 7.536 0 7.536zM308.194 286.255c-0.437 3.955-41.538 7.096-49.468 9.637 4.042-10.844 17.377-15.048 27.585-16.966 11.898-2.238 23.284-6.308 21.883 7.329-0.084 0.755 0.296-2.873 0 0zM280.543 267.966c-10.584 1.796-19.23 6.636-24.034 16.483-5.093 1.755-6.541-1.637-2.405-5.511 8.941-8.378 15.302-18.869 28.282-21.484 9.949-2.005 28.666-1.355 33.226 9.677-11.68-0.281-23.474-1.127-35.070 0.835-10.161 1.724 11.545-1.954 0 0zM340.683 325.953c-0.498 3.983-44.124 51.645-39.796 53.44-13.238-5.694 28.168-51.708 29.693-55.819 3.615-9.744-8.421-12.737-14.648-15.61-6.47-2.983-14.139-6.035-21.458-5.27-7.995 0.836-5.952 7.858-8.854 12.98-15.83-20.78 15.474-20.019 25.846-16.767 12.663 3.971 31.183 10.524 29.217 27.046-0.279 2.233 0.296-2.479 0 0zM345.362 303.165c-14.254-6.746-34.277-7.66-32.409-24.873 8.084 0.26 15.702 3.181 21.622 8.767 2.317 2.179 11.894 16.596 10.786 16.106-7.32-3.464 0.296 0.132 0 0zM346.529 377.159c-0.719 1.545-3.129 9.867-5.45 9.867-0.521-7.829 2.492-14.643 5.257-21.772 1.656-4.27-13.793-3.544-16.259-4.216-6.115-1.619 7.476-10.166 14.285-7.831 15.854 5.433 7.313 12.819 2.167 23.952-1.363 2.923 2.526-5.467 0 0zM383.286 114.38c-8.986-0.783-18.507-3.776-23.985-11.476 8.729-0.565 20.267 11.216 23.985 11.476-9.061-0.789 0.231 0.015 0 0zM391.382 98.373c-6.423 2.050-21.747 5.505-26.582-1.873 5.805-0.537 24.848 2.363 26.582 1.873-4.32 1.377 0.296-0.084 0 0zM394.845 83.989c-7.112 2.719-24.065 7.544-30.504 0.577 7.777-0.671 25.17 1.801 30.504-0.577zM394.845 83.989c-7.112 2.719-24.065 7.544-30.504 0.577 7.777-0.671 25.17 1.801 30.504-0.577zM391.382 98.373c-6.423 2.050-21.747 5.505-26.582-1.873 5.805-0.537 24.848 2.363 26.582 1.873-4.32 1.377 0.296-0.084 0 0zM383.286 114.38c-8.986-0.783-18.507-3.776-23.985-11.476 8.729-0.565 20.267 11.216 23.985 11.476-9.061-0.789 0.231 0.015 0 0zM300.149 159.412c-4.86 0-4.865-7.536 0-7.536 4.88 0 4.877 7.536 0 7.536zM296.389 176.848c-4.854 0-4.861-7.519 0-7.519 4.882 0 4.877 7.519 0 7.519zM346.529 377.159c-0.719 1.545-3.129 9.867-5.45 9.867-0.521-7.829 2.492-14.643 5.257-21.772 1.656-4.27-13.793-3.544-16.259-4.216-6.115-1.619 7.476-10.166 14.285-7.831 15.854 5.433 7.313 12.819 2.167 23.952-1.363 2.923 2.526-5.467 0 0zM345.362 303.165c-14.254-6.746-34.277-7.66-32.409-24.873 8.084 0.26 15.702 3.181 21.622 8.767 2.317 2.179 11.894 16.596 10.786 16.106-7.32-3.464 0.296 0.132 0 0zM340.683 325.953c-0.498 3.983-44.124 51.645-39.796 53.44-13.238-5.694 28.168-51.708 29.693-55.819 3.615-9.744-8.421-12.737-14.648-15.61-6.47-2.983-14.139-6.035-21.458-5.27-7.995 0.836-5.952 7.858-8.854 12.98-15.83-20.78 15.474-20.019 25.846-16.767 12.663 3.971 31.183 10.524 29.217 27.046-0.279 2.233 0.296-2.479 0 0zM280.543 267.966c-10.584 1.796-19.23 6.636-24.034 16.483-5.093 1.755-6.541-1.637-2.405-5.511 8.941-8.378 15.302-18.869 28.282-21.484 9.949-2.005 28.666-1.355 33.226 9.677-11.68-0.281-23.474-1.127-35.070 0.835-10.161 1.724 11.545-1.954 0 0zM308.194 286.255c-0.437 3.955-41.538 7.096-49.468 9.637 4.042-10.844 17.377-15.048 27.585-16.966 11.898-2.238 23.284-6.308 21.883 7.329-0.084 0.755 0.296-2.873 0 0zM274.981 361.957c-5.863 8.48-10.228 15.688-15.203 24.856-3.209-9.039 4.17-20.297 8.716-27.532 2.216-3.62-22.928-1.765-22.984-1.872-8.049-15.615 42.512-14.231 29.472 4.548-1.363 1.97 1.642-2.364 0 0zM248.777 416.43c-18.444 15.587-41.647-25.912-32.594-28.438-1.696 0.473 17.41 20.19 23.383 20.969 2.749 0.364 19.689-1.333 9.21 7.47-7.847 6.632 1.74-1.461 0 0zM152.881 342.978c-8.282 4.939-16.329-0.065-17.567-9.079 1.951 2.942 4.653 4.162 8.111 3.661-3.341-6.495-3.823-19.462 2.135-24.873-0.010 2.688 0.548 31.632 9.207 19.582 2.192-3.050 3.203-8.928 6.636-10.897 1.627 8.085-1.141 17.186-8.521 21.606-3.497 2.085 5.894-3.53 0 0zM394.845 83.989c-7.112 2.719-24.065 7.544-30.504 0.577 7.777-0.671 25.17 1.801 30.504-0.577zM391.382 98.373c-6.423 2.050-21.747 5.505-26.582-1.873 5.805-0.537 24.848 2.363 26.582 1.873-4.32 1.377 0.296-0.084 0 0zM383.286 114.38c-8.986-0.783-18.507-3.776-23.985-11.476 8.729-0.565 20.267 11.216 23.985 11.476-9.061-0.789 0.231 0.015 0 0zM346.529 377.159c-0.719 1.545-3.129 9.867-5.45 9.867-0.521-7.829 2.492-14.643 5.257-21.772 1.656-4.27-13.793-3.544-16.259-4.216-6.115-1.619 7.476-10.166 14.285-7.831 15.854 5.433 7.313 12.819 2.167 23.952-1.363 2.923 2.526-5.467 0 0zM345.362 303.165c-14.254-6.746-34.277-7.66-32.409-24.873 8.084 0.26 15.702 3.181 21.622 8.767 2.317 2.179 11.894 16.596 10.786 16.106-7.32-3.464 0.296 0.132 0 0zM340.683 325.953c-0.498 3.983-44.124 51.645-39.796 53.44-13.238-5.694 28.168-51.708 29.693-55.819 3.615-9.744-8.421-12.737-14.648-15.61-6.47-2.983-14.139-6.035-21.458-5.27-7.995 0.836-5.952 7.858-8.854 12.98-15.83-20.78 15.474-20.019 25.846-16.767 12.663 3.971 31.183 10.524 29.217 27.046-0.279 2.233 0.296-2.479 0 0zM280.543 267.966c-10.584 1.796-19.23 6.636-24.034 16.483-5.093 1.755-6.541-1.637-2.405-5.511 8.941-8.378 15.302-18.869 28.282-21.484 9.949-2.005 28.666-1.355 33.226 9.677-11.68-0.281-23.474-1.127-35.070 0.835-10.161 1.724 11.545-1.954 0 0zM308.194 286.255c-0.437 3.955-41.538 7.096-49.468 9.637 4.042-10.844 17.377-15.048 27.585-16.966 11.898-2.238 23.284-6.308 21.883 7.329-0.084 0.755 0.296-2.873 0 0zM300.149 159.412c-4.86 0-4.865-7.536 0-7.536 4.88 0 4.877 7.536 0 7.536zM296.389 176.848c-4.854 0-4.861-7.519 0-7.519 4.882 0 4.877 7.519 0 7.519zM274.981 361.957c-5.863 8.48-10.228 15.688-15.203 24.856-3.209-9.039 4.17-20.297 8.716-27.532 2.216-3.62-22.928-1.765-22.984-1.872-8.049-15.615 42.512-14.231 29.472 4.548-1.363 1.97 1.642-2.364 0 0zM248.777 416.43c-18.444 15.587-41.647-25.912-32.594-28.438-1.696 0.473 17.41 20.19 23.383 20.969 2.749 0.364 19.689-1.333 9.21 7.47-7.847 6.632 1.74-1.461 0 0zM152.881 342.978c-8.282 4.939-16.329-0.065-17.567-9.079 1.951 2.942 4.653 4.162 8.111 3.661-3.341-6.495-3.823-19.462 2.135-24.873-0.010 2.688 0.548 31.632 9.207 19.582 2.192-3.050 3.203-8.928 6.636-10.897 1.627 8.085-1.141 17.186-8.521 21.606-3.497 2.085 5.894-3.53 0 0zM296.389 176.848c-4.854 0-4.861-7.519 0-7.519 4.882 0 4.877 7.519 0 7.519zM300.149 159.412c-4.86 0-4.865-7.536 0-7.536 4.88 0 4.877 7.536 0 7.536zM152.881 342.978c-8.282 4.939-16.329-0.065-17.567-9.079 1.951 2.942 4.653 4.162 8.111 3.661-3.341-6.495-3.823-19.462 2.135-24.873-0.010 2.688 0.548 31.632 9.207 19.582 2.192-3.050 3.203-8.928 6.636-10.897 1.627 8.085-1.141 17.186-8.521 21.606-3.497 2.085 5.894-3.53 0 0zM248.777 416.43c-18.444 15.587-41.647-25.912-32.594-28.438-1.696 0.473 17.41 20.19 23.383 20.969 2.749 0.364 19.689-1.333 9.21 7.47-7.847 6.632 1.74-1.461 0 0zM274.981 361.957c-5.863 8.48-10.228 15.688-15.203 24.856-3.209-9.039 4.17-20.297 8.716-27.532 2.216-3.62-22.928-1.765-22.984-1.872-8.049-15.615 42.512-14.231 29.472 4.548-1.363 1.97 1.642-2.364 0 0zM308.194 286.255c-0.437 3.955-41.538 7.096-49.468 9.637 4.042-10.844 17.377-15.048 27.585-16.966 11.898-2.238 23.284-6.308 21.883 7.329-0.084 0.755 0.296-2.873 0 0zM280.543 267.966c-10.584 1.796-19.23 6.636-24.034 16.483-5.093 1.755-6.541-1.637-2.405-5.511 8.941-8.378 15.302-18.869 28.282-21.484 9.949-2.005 28.666-1.355 33.226 9.677-11.68-0.281-23.474-1.127-35.070 0.835-10.161 1.724 11.545-1.954 0 0zM340.683 325.953c-0.498 3.983-44.124 51.645-39.796 53.44-13.238-5.694 28.168-51.708 29.693-55.819 3.615-9.744-8.421-12.737-14.648-15.61-6.47-2.983-14.139-6.035-21.458-5.27-7.995 0.836-5.952 7.858-8.854 12.98-15.83-20.78 15.474-20.019 25.846-16.767 12.663 3.971 31.183 10.524 29.217 27.046-0.279 2.233 0.296-2.479 0 0zM345.362 303.165c-14.254-6.746-34.277-7.66-32.409-24.873 8.084 0.26 15.702 3.181 21.622 8.767 2.317 2.179 11.894 16.596 10.786 16.106-7.32-3.464 0.296 0.132 0 0zM346.529 377.159c-0.719 1.545-3.129 9.867-5.45 9.867-0.521-7.829 2.492-14.643 5.257-21.772 1.656-4.27-13.793-3.544-16.259-4.216-6.115-1.619 7.476-10.166 14.285-7.831 15.854 5.433 7.313 12.819 2.167 23.952-1.363 2.923 2.526-5.467 0 0zM383.286 114.38c-8.986-0.783-18.507-3.776-23.985-11.476 8.729-0.565 20.267 11.216 23.985 11.476-9.061-0.789 0.231 0.015 0 0zM391.382 98.373c-6.423 2.050-21.747 5.505-26.582-1.873 5.805-0.537 24.848 2.363 26.582 1.873-4.32 1.377 0.296-0.084 0 0zM394.845 83.989c-7.112 2.719-24.065 7.544-30.504 0.577 7.777-0.671 25.17 1.801 30.504-0.577zM152.881 342.978c-8.282 4.939-16.329-0.065-17.567-9.079 1.951 2.942 4.653 4.162 8.111 3.661-3.341-6.495-3.823-19.462 2.135-24.873-0.010 2.688 0.548 31.632 9.207 19.582 2.192-3.050 3.203-8.928 6.636-10.897 1.627 8.085-1.141 17.186-8.521 21.606-3.497 2.085 5.894-3.53 0 0zM394.845 83.989c-7.112 2.719-24.065 7.544-30.504 0.577 7.777-0.671 25.17 1.801 30.504-0.577zM394.845 83.989c-7.112 2.719-24.065 7.544-30.504 0.577 7.777-0.671 25.17 1.801 30.504-0.577zM394.845 83.989c-7.112 2.719-24.065 7.544-30.504 0.577 7.777-0.671 25.17 1.801 30.504-0.577zM391.382 98.373c-6.423 2.050-21.747 5.505-26.582-1.873 5.805-0.537 24.848 2.363 26.582 1.873-4.32 1.377 0.296-0.084 0 0zM345.362 303.165c-14.254-6.746-34.277-7.66-32.409-24.873 8.084 0.26 15.702 3.181 21.622 8.767 2.317 2.179 11.894 16.596 10.786 16.106-7.32-3.464 0.296 0.132 0 0zM308.194 286.255c-0.437 3.955-41.538 7.096-49.468 9.637 4.042-10.844 17.377-15.048 27.585-16.966 11.898-2.238 23.284-6.308 21.883 7.329-0.084 0.755 0.296-2.873 0 0zM305.927 277.488c0.774 0.017 1.625 0.050 2.563 0.099-0.857-0.049-1.709-0.082-2.563-0.099zM280.543 267.966c-10.584 1.796-19.23 6.636-24.034 16.483-5.093 1.755-6.541-1.637-2.405-5.511 8.941-8.378 15.302-18.869 28.282-21.484 9.949-2.005 28.666-1.355 33.226 9.677-11.68-0.281-23.474-1.127-35.070 0.835-10.161 1.724 11.545-1.954 0 0zM346.529 377.159c-0.719 1.545-3.129 9.867-5.45 9.867-0.521-7.829 2.492-14.643 5.257-21.772 1.656-4.27-13.793-3.544-16.259-4.216-6.115-1.619 7.476-10.166 14.285-7.831 15.854 5.433 7.313 12.819 2.167 23.952-1.363 2.923 2.526-5.467 0 0zM274.981 361.957c-5.863 8.48-10.228 15.688-15.203 24.856-3.209-9.039 4.17-20.297 8.716-27.532 2.216-3.62-22.928-1.765-22.984-1.872-8.049-15.615 42.512-14.231 29.472 4.548-1.363 1.97 1.642-2.364 0 0zM248.777 416.43c-18.444 15.587-41.647-25.912-32.594-28.438-1.696 0.473 17.41 20.19 23.383 20.969 2.749 0.364 19.689-1.333 9.21 7.47-7.847 6.632 1.74-1.461 0 0zM383.286 114.38c-8.986-0.783-18.507-3.776-23.985-11.476 8.729-0.565 20.267 11.216 23.985 11.476-9.061-0.789 0.231 0.015 0 0zM340.683 325.953c-0.498 3.983-44.124 51.645-39.796 53.44-13.238-5.694 28.168-51.708 29.693-55.819 3.615-9.744-8.421-12.737-14.648-15.61-6.47-2.983-14.139-6.035-21.458-5.27-7.995 0.836-5.952 7.858-8.854 12.98-15.83-20.78 15.474-20.019 25.846-16.767 12.663 3.971 31.183 10.524 29.217 27.046-0.279 2.233 0.296-2.479 0 0zM296.389 176.848c-4.854 0-4.861-7.519 0-7.519 4.882 0 4.877 7.519 0 7.519zM300.149 159.412c-4.86 0-4.865-7.536 0-7.536 4.88 0 4.877 7.536 0 7.536zM409.391 125.214c-11.573 26.015-41.22 9.692-58.495 1.050 6.051 15.906 11.138 32.151 16.218 48.386 3.827 12.236 14.067 30.897 10.74 44.016-6.522 25.73-47.807 23.486-28.782 54.257 21.325 34.493 22.587 94.96 11.116 133.431-17.522 58.767-78.629 83.808-135.267 70.017-25.858-6.291-53.017-18.222-72.123-37.186-7.754-7.694-9.65-17.688-17.847-24.571-8.033-6.742-11.215-16.635-11.44-26.867-0.212-9.621 1.278-19.321 0.632-28.922-0.668-9.936-7.927-18.028-7.281-29.623 0.701-12.609 4.978-25.827 13.805-35.132 4.569-4.799 10.429-8.375 16.845-10.081 5.884-1.573 4.903-10.399 6.623-15.109 4.3-11.77 15.798-20.128-0.262-28.060-13.629-6.73-26.92-14.653-39.424-23.292-6.846-4.728-18.831-7.36-21.070-16.658-2.912-12.087 6.353-30.458 10.194-41.608 8.172-23.727 16.282-46.774 16.772-72.085 0.172-8.901-0.192-17.957 0.622-26.833 1.195-13.062 22.456-17.002 32.079-21.76 13.329-6.591 27.344-12.243 42.54-10.993 4.141 0.149 6.922-18.091 7.627-20.991 2.148-8.823 5.053-28.284 13.914-33.079 13.916-7.531 36.442-5.897 51.678-5.447 12.67 0.375 31.428-1.701 41.885 7.071 4.88 4.093 3.341 8.777 2.899 14.216-0.488 6.004 9.961 6.119 13.805 8.507 12.027 7.471 3.498 24.971 1.767 35.487-1.308 7.887 6.007 22.572 14.658 24.802 21.356 5.508 51.293-20.629 69.419 5.575 11.975 17.314 4.057 44.151-3.846 61.478zM202.939 458.64c5.429 0 6.357-2.635-0.794-6.143-10.731-5.265-21.434-9.662-30.294-18.006-6.723-6.33-12.329-12.94-22.039-14.334 9.371 20.481 32.606 32.295 53.127 38.483 0.017 0-20.144-6.075 0 0zM143.031 411.259c8.82 6.596 22.275 4.835 32.556 4.925-0.381-7.907-7.598-6.605-13.216-6.518-9.171 0.128-16.601-4.414-22.361-11.262-10.369-12.338 4.96-29.020-7.109-37.219-5.989 18.257-6.391 37.69 10.13 50.074 7.881 5.894-9.44-7.076 0 0zM164.965 292.461c4.383 4.297 4.715 13.914-3.644 7.453-6.848-5.294-15.030-5.022-21.651 0.432-11.012 9.067-18.090 28.089-10.601 41.205 9.983 17.48 30.405 15.628 35.62-3.957 1.804-6.776 13.689-8.685 16.897-0.893 2.684 6.516-1.441 15.877-3.029 22.2-2.091 8.337-0.468 16.168 1.343 24.482 2.822 12.952 0.679 23.837 1.355 36.456 0.934 17.457 29.906 34.69 43.434 41.139 20.434 9.742 42.364 9.382 63.688 2.582 24.555-7.829 35.401-23.757 52.752-41.105-8.661 2.567-22.663-0.803-20.422-12.494 8.754 8.548 22.83 1.993 29.491-5.823 9.313-10.929 7.875-28.283 8.418-41.624 1.146-32.939-3.935-67.336-22.147-95.469-15.175-23.481-42.024-43.028-71.649-37.875-27.81 3.613-47.725 28.38-62.090 50.304 0.76-21.322 23.261-41.199 41.028-49.861-10.905 2.52-15.072-2.327-24.698-4.286-9.161-1.867-23.102 2.733-30.709 7.585-12.171 7.764-36.712 46.451-23.382 59.548 5.762 5.648-6.617-6.501 0 0zM225.644 214.854c4.096 18.668 39.885-8.309 49.515-9.046-0.224-5.974-9.859-5.26-13.561-7.010 31.649-1.312-3.531-24.947-14.633-29.642-22.066-9.334-25.571 30.928-21.321 45.699 0.328 1.494-2.167-7.536 0 0zM225.299 190.622c-0.214 1.067-0.377 2.118-0.476 3.168 0.115-1.067 0.279-2.118 0.476-3.168zM289.741 214.083c-5.178-3.844-19.389 2.495-24.2 6.272 1.481 0.945 10.192-1.94 13.484-1.519 8.089 1.039 15.748 4.735 23.866 5.375-4.488-3.239-8.872-6.615-13.151-10.128zM280.822 197.517c0 4.728 2.297 16.087 9.723 8.734 8.015-6.887-6.191-21.348-9.723-8.734 0 0.017 3.747-13.38 0 0zM266.756 173.384c9.192 6.332 29.222-38.276 29.222-47.644-16.764 5.045-32.716 12.483-48.022 20.914-11.443 6.301 14.49 23.743 18.8 26.73 0.262 0.18-9.36-6.485 0 0zM276.408 180.969c7.452 7.848 25.87 8.601 32.257-1.291 5.654-8.754-1.521-41.897-5.070-51.591-9.501 17.388-14.341 37.396-27.188 52.882 4.613 4.86 12.791-15.416 0 0zM307.275 189.308c-13.428 2.753-8.647 12.853 3.183 14.25-8.527 4.167-18.122 0.371-9.261 10.113 6.267 3.81 19.621 16.802 26.797 8.536 5.226-6.019 6.317-16.154 6.14-23.766-0.379-16.538-14.088-11.957-26.86-9.133-1.284 0.262 7.355-1.625 0 0zM217.288 209.371c-4.19 0.264-30.38 7.926-23.789 14.661 7.24-7.24 25.909 1.534 23.789-14.661-3.661 0.231 0.148 1.133 0 0zM123.888 185.467c8.725-37.81 22.297-85.837 12.494-124.544-8.957 4.566-5.869 18.613-6.534 27.106-1.123 14.581-2.936 29.118-5.61 43.498-2.303 12.382-23.827 63.113-14.21 69.389 13.822 9.022 26.868 18.629 41.303 26.72 16.759 9.394 17.433 7.452 29.511-6.559-14.17-6.337-28.345-12.663-42.517-18.993-11.706-5.229-17.362-3.618-14.438-16.616 2.019-8.75-0.329 1.461 0 0zM191.874 111.67c0.017-2.265-1.745-5.209-1.691-7.913-1.935 0.803-21.073-1.642-23.54 1.42-2.328 2.891 9.064 5.835 9.729 6.735 2.567 3.467-3.939 8.414-2.689 12.368 4.638-2.259 8.363-6.188 13.429-7.618 0 6.533-1.715 46.906 5.216 48.214 6.935 1.31-9.206-52.18 7.754-50.053-2.88-0.573-5.94-0.99-8.209-3.152zM295.288-18.49c-20.716-4.152-42.71-3.413-63.347 0.921-13.851 2.909-13.816 6.040-17.7 19.504-3.082 10.68-5.794 21.459-8.153 32.322-5.029 23.149-8.466 46.603-11.030 70.143 19.376 0 39.278 6.159 58.923 6.812 6.612 0.224 39.611 3.569 42.691-5.252 5.928-16.988 2.934-42.413 3.897-60.308 0.639-11.863 1.236-23.733 2.050-35.586 0.964-14.014 8.416-25.311-7.332-28.555zM303.875 93.38c-0.308 13.514-0.668 16.434 14.497 16.434 3.239-11.801-0.111-19.192-14.497-16.434-0.082 3.644 2.233-0.427 0 0zM324.134 6.844c-17.952-7.497-15.981 1.99-16.772 16.388-0.535 9.765-2.565 20.7 7.762 22.152 6.864 0.966 9.23-33.594 9.010-38.541zM323.215 149.693c-4.906-8.228-9.34-17.087-16.171-23.937 3.195 9.406 1.634 75.945 26.221 51.371 4.684-4.228-4.111-17.688-10.050-27.434zM348.135 66.143c-8.383-3.178-12.328-5.526-13.062 4.459-1.002 13.591-4.226 26.973-5.572 40.542 20.899 1.483 18.336-29.75 18.634-45.001zM348.465 218.697c-8.413 6.286-15.447 18.26-27.072 14.546 3.405 4.96 9.491 6.899 12.855 11.903 5.101-4.88 10.148-9.816 15.31-14.631 7.746-7.226 19.959-13.45 17.788-25.838-6.288 4.679-12.591 9.341-18.88 14.021-4.351 3.25 6.289-4.679 0 0zM404.497 66.538c-8.030-8.015-23.779-10.611-33.983-5.697 7.029 3.93 15.377 3.116 22.806 5.762-6.406 2.764-35.239-2.344-37.673 1.566-3.771 6.055-2.305 20.243-3.279 27.278-1.678 12.126-6.611 17.226 6.664 22.587 13.248 5.352 34.24 18.478 43.142 0.555 6.664-13.421 13.204-39.524 2.323-52.052-7.599-7.585 8.457 9.736 0 0z" />
<glyph unicode="&#xe619;" glyph-name="jenkins-o" d="M425.644 126.235c-2.456 5.259-6.217 6.365-9.9 10.048 8.971 9.868 13.968 28.457 17.714 41.011 4.953 16.601 7.626 33.867 7.986 51.185 0.69 33.016-7.082 66.029-22.73 95.13-7.211 13.409-16.035 25.945-26.231 37.251-2.737 3.038-8.269 6.828-10.036 10.407-0.546 9.565-1.719 19.116-3.805 28.471-5.984 26.818-23.050 49.578-45.837 64.925-25.482 17.164-62.091 18.777-91.157 11.706-24.291-5.91-54.101-19.307-72.118-37.183-4.245-4.213-7.702-9.167-9.976-14.715-1.504-3.671-1.048-5.442-4.52-7.488-2.366-1.392-4.481-3.18-6.28-5.25-3.889-4.476-6.24-10.087-7.695-15.779-0.834-3.262-1.384-6.594-1.742-9.938-0.713-6.667-1.008-7.457-6.016-12.002-23.5-21.323-41.38-48.685-51.686-78.681-20.476-59.601-10.091-127.439 27.773-177.864 4.218-5.615 8.748-10.997 13.563-16.109 4.756-5.048 13.237-9.993 13.7-16.948 0.534-7.997 0.309-16.089 1.037-24.058 0.72-7.899 5.416-10.189 12.295-12.717 13.648-5.019 25.833-13.298 39.858-17.455 7.281-2.156 14.876-3.204 22.466-2.584 3.227 0.111 7.151-19.712 8.28-23.498 2.274-7.634 4.643-15.25 7.376-22.737 3.106-8.512 7.278-8.867 15.935-10.537 16.378-3.157 33.352-3.287 49.957-2.405 9.137 0.486 20.613 0.002 29.010 3.998 5.088 2.224 8.915 5.894 8.195 11.614-0.832 6.63-2.349 8.997 4.002 10.386 10.765 2.627 16.699 7.103 15.009 19.113-0.94 6.697-3.094 13.151-4.192 19.817-1.075 6.543-2.003 11.384 4.057 14.129 2.187 1.033 3.837 2.548 4.264 5.125 0.83 5.005 6.291 5.668 11.333 6.507 4.675 0.78 9.408 0.873 14.135 0.697 4.651-8.986 16.822-8.107 25.841-7.719 40.779 1.752 32.255 48.288 20.128 74.145-2.346 5.024 3.841-8.192 0 0zM382.777 354.932c34.564-33.74 50.282-87.344 47.161-134.548-1.651-24.98-8.491-49.563-20.116-71.741-4.162-7.94-6.242-11.885-15.502-11.885-9.3-2.257-18.163-6.224-26.695-10.491 9.097 23.899 15.974 48.44 23.955 72.704 2.808 8.537 6.324 18.087-0.128 25.756-5.482 6.516-12.711 11.944-19.225 17.428-3.818 3.214-12.226 8.466-13.303 13.763-1.385 6.846 8.762 18.342 11.089 24.751 8.563 23.594 12.396 49.238 12.764 74.263 0.033-0.033-0.312-21.146 0 0zM246.97 175.291c0 4.565-3.906 10.952-4.769 15.586-1.429 7.666-1.99 16.438 0.173 23.979 0.335 1.502 1.095 3.478 2.216 4.597 2.704 4.449 10.754 1.264 13.837 0.361 10.962-3.209 22.308-13.147 33.464-14.002-0.216-5.69-9.048-4.884-13.563-7.012 9.137-0.382 19.995-3.714 11.182-12.526-2.038 0-7.281-6.076-8.897-7.396-3.555-2.902-7.447-5.403-11.576-7.38-4.755-1.995-11.675-5.69-17.026-4.925-3.069 0.002-4.329 6.728-5.040 8.719 0 0.017 0.739-2.068 0 0zM242.029 190.625c-0.214 1.065-0.377 2.118-0.476 3.168 0.115-1.067 0.279-2.118 0.476-3.168zM297.536 197.57c0 4.766-2.446 8.532 3.661 10.097 2.368 0 4.096 0.545 6.075-1.412 7.93-6.812-6.005-22.147-9.736-8.685 0 0.065 0.082-0.296 0 0zM305.926 213.692c0-4.296-22.069 5.423-23.658 6.666 0.354 0.233 0.66 0.517 0.92 0.856 7.841-7.128 27.281 2.276 36.43 3.005-4.839-3.147-9.033-7.14-13.692-10.526 0-0.017 4.679 3.399 0 0zM287.177 175.882c6.226-6.226 10.448-15.94 14.157-23.786 3.139-6.637 11.373-19.066 11.373-26.353-16.74 5.037-32.733 12.495-48.017 20.923-11.786 6.498 16.935 25.495 22.487 29.217 0.017-0.017-10.852-7.273 0 0zM293.137 180.971c4.618 4.853 7.311 3.558 13.659 6.173 5.166 2.582 9.543-3.075 13.817-5.060 5.876-2.731 5.219-0.89 4.914-8.419-0.279-5.978-0.443-11.957-0.821-17.928-0.577-9.082-1.212-18.998-4.384-27.647-9.465 17.336-14.389 37.47-27.186 52.881 1.297 1.363 12.214-14.71 0 0zM324.002 189.311c-1.272 0.26-2.919 0.92-4.252 0.92-3.798 0.78-3.287 0.123-3.456 4.618-0.017 0.406-0.846 6.728 0.682 6.728 2.116 2.017 7.841 1.699 10.214 1.986-3.502 1.702-7.948 2.346-11.772 1.363 0.659 0-2.021 6.115-2.070 6.255 1.346 0.489 3.584 1.399 4.58 2.497 2.724 1.649 5.207 3.757 7.995 5.301 3.659 2.558 9.373 6.262 14.037 5.762 10.747 0 14.37-33.909 7.191-37.892-7.536-0.002-15.796 0.83-23.149 2.461zM343.966 234.476c-2.135 0.317-3.894-0.602-5.846-1.232 3.349 4.868 9.517 6.95 12.855 11.903 6.771-6.464 13.533-13.136 20.505-19.389 7.485-6.718 14.582-9.757 12.592-21.080-6.291 4.674-12.582 9.348-18.873 14.022-4.367 3.246-16.212 15.311-21.233 15.775-0.329 0.049 3.202-0.296 0 0zM221.638 459.2c2.208 0.649 4.226-1.822 2.052-3.75-2.311-2.049-7.201-4.078-9.969-5.253-7.34-3.115-14.365-7.035-20.697-11.893-9.756-7.481-13.441-16.281-26.483-18.145 9.332 20.394 34.581 33.23 55.097 39.041 1.117 0.329-20.457-5.796 0 0zM145.673 384.287c0.364 12.425 4.639 19.891 14.087 26.974 7.874 5.897 23.106 4.839 32.556 4.925-0.399-8.165-6.882-6.62-13.223-6.523-9.457 0.143-16.26-4.012-22.354-11.257-4.418-5.259-4.382-14.198-3.497-20.637 0.491-4.043 1.484-8.007 1.988-12.045 0.478-3.816-2.988-2.763-5.601-4.536-2.402 7.301-4.206 15.364-3.955 23.1 0.017 0.575-0.017-0.493 0 0zM142.653 331.602c0.688 13.154 16.913 29.086 30.42 20.028 6.122-4.105 8.178-12.552 9.556-19.339 4.696-0.2 9.53-0.015 13.807 2.135 6.93 4.181-2.65 24.687-2.397 31.933 0.292 8.676 2.774 16.986 4.351 25.464 0 5.288 1.536 10.359 1.33 15.777-0.47 7.383-3.894 11.629 0.322 18.337 11.912 18.954 37.759 37.005 60.062 41.472 19.604 3.921 41.090-1.218 59.033-9.206 18.117-8.064 25.341-22.369 38.718-35.746-8.754 2.589-22.711-0.57-20.423-12.494 9.831 9.598 27.264 0.132 32.377-10.113 5.533-11.131 5.043-25.168 5.533-37.334 1.151-32.965-3.887-67.269-22.142-95.47-7.813-12.072-15.124-21.44-27.915-28.351-13.111-6.974-28.739-12.132-43.738-9.522-27.308 3.544-48.013 28.836-62.090 50.303 0.702-19.779 24.496-41.796 41.028-49.861-3.272 0.754-6.595 1.149-9.951 1.149-3.76 0-8.124-0.659-10.879-3.47-4.124-4.21-13.029-1.32-18.838-0.305-22.799 4.095-31.397 20.466-38.399 41.119-2.595 7.656-7.347 17.856-0.722 24.349 5.757 5.644 4.447 13.719-3.649 7.46-18.949-14.644-36.313 14.373-35.393 31.684 0.427 8.176-0.476-8.964 0 0zM234.46 212.805c0.139-1.135-0.297-2.297-0.444-3.432-3.666 0.224-30.516 7.784-23.789 14.661 2.044-2.043 26.358-2.503 24.233-11.229zM133.361 106.615c-69.537 71.2-66.793 190.534 6.353 258.135 0-4.815 1.755-3.579 0.804-8.274-0.509-2.44-2.865-3.844-3.776-6.042-1.996-4.741-2.96-9.878-3.191-15.002-0.645-14.257 3.839-30.808 13.853-41.356 4.572-4.817 10.412-8.386 16.843-10.092 5.405-1.434 3.47-3.179 4.635-8.274 1.031-4.512 2.59-9.284 5.029-13.243 2.44-3.96 7.825-10.033 5.335-15.084-1.993-4.060-9.578-6.822-13.288-8.875-11.793-6.531-23.689-13.311-34.782-20.98-8.174-5.649-23.094-8.946-21.228-21.499 4.605-31.36 25.070-58.217 25.070-91.070-0.552 0.551-1.103 1.105-1.656 1.658-15.745 16.122 0.542-0.558 0 0zM155.294 87.702c0.185-8.908 0.024-18.094-2.184-26.777-5.994 3.053-5.242 3.942-5.549 10.748-0.246 5.455-0.565 10.911-0.985 16.357-0.923 11.93-2.306 23.837-4.24 35.644-3.862 23.591-9.923 46.998-19.636 68.892-2.611 5.885 4.408 8.115 9.035 11.587 5.070 3.769 10.198 7.465 15.442 10.99 4.717 3.172 32.724 20.103 37.029 20.103 3.971 0 11.003-11.42 13.364-14.168-9.512-4.249-19.024-8.498-28.537-12.748-6.99-3.121-13.98-6.245-20.969-9.366-1.629-0.728-8.78-2.634-9.631-4.301-0.716-1.402 1.852-7.735 2.187-9.194 2.010-8.748 3.869-17.529 5.582-26.339 4.572-23.502 8.546-47.447 9.092-71.428zM190.789 104.596c-0.568-0.039-1.137-0.079-1.708-0.099 0.452 0 2.368 0.421 1.708 0.099-0.23-0.017 0.033 0.017 0 0zM208.57 111.639c-1.701-2.096-1.708-5.347-1.658-7.88-6.304 2.611-13.637 0.656-20.161 0.656-7.795-0.138-0.977 5.149 3.005 5.959 8.922 1.452-0.865 9.079 0.656 13.906 4.577-2.231 8.482-6.226 13.429-7.618 0 4.5 2.309 9.409 2.251 14.272-0.074 6.161-0.911 12.269-1.412 18.399-0.337 4.132-0.573 8.543 0.821 12.531 0.416 1.192 4.679 5.036 4.679 1.717 3.37-8.826-0.622-23.198-0.675-32.62-0.023-4.082-0.274-8.211 0.48-12.248 1.087-5.129 1.988-4.507 6.829-3.891-2.417-0.485-6.478-1.103-8.245-3.185-0.985-1.215 0.279 0.329 0 0zM311.262-18.635c-11.839-2.312-24.056-2.995-36.084-2.256-6.733 0.416-13.409 0.955-20.064 2.108-6.465 1.085-12.865 2.561-19.143 4.449-2.638 8.091-5.073 16.247-7.292 24.464-6.482 23.985-11.031 48.424-14.326 73.037-0.946 7.066-1.791 14.142-2.565 21.23 5.661 0 12.011 2.116 17.639 2.94 13.678 2.002 27.465 3.411 41.284 3.873 7.792 0.264 15.72 0.368 23.502-0.299 3.433-0.294 6.868-0.627 10.292-1.008 7.356-0.822 8.91-0.729 9.729-8.346 0-9.74 1.149-19.649 1.664-29.377 0.934-17.688 1.842-35.379 2.888-53.060 0.358-6.043 0.719-12.084 1.289-18.111 0.532-5.642 1.049-11.346 2.205-16.904-3.58-1.113-7.337-2.017-11.018-2.74-0.673-0.132 2.003 0.394 0 0zM320.603 93.383c-0.086 3.647-1.959 14.37 1.808 15.367 1.97 0.578 4.115 0.796 6.15 0.923 2.141 0.132 4.411 0.144 6.539 0.144 1.074-3.885 1.844-7.849 2.415-11.837 0-3.149-14.687-5.017-16.912-4.597zM340.865 6.846c-3.868-1.287-7.755-2.99-11.887-3.202-6.242-0.832-4.171 7.68-4.477 12.694-0.421 6.897-0.847 13.804-0.916 20.716-0.103 10.417 3.495 2.502 8.56 7.567 1.373-0.279-3.411 1.813 3.103 0.084 0.425-3.712 1.159-7.378 1.944-11.027 1.901-8.832 4.087-17.721 3.673-26.832-0.642-0.214 0.606 13.348 0 0zM339.288 148.596c-4.529-7.452-9.302-16.623-15.514-22.836 3.61 10.632 4.937 22.105 5.999 33.226 0.78 8.14-3.288 23.036 8.038 23.036 4.4 0.2 9.064-1.774 12.182-4.892-0.505 0.462-1.031 0.899-1.576 1.315 5.431-4.702 5.139-5.45 1.543-11.673-3.515-6.082-7.007-12.183-10.671-18.176-2.645-4.351 2.428 3.973 0 0zM364.865 66.146c-3.966-0.815-7.457-3.070-11.606-3.070-1.32 0.745-1.43 8.931-1.786 11.458-1.714 12.205-4.024 24.348-5.24 36.615 4.628 0.322 9.816 2.087 12.072-2.712 2.437-5.192 3.84-10.847 4.807-16.48-0.003-8.273 1.878-17.144 1.753-25.81-0.476-0.099 0.050 3.447 0 0zM421.227 66.54c-7.593-7.593-24.171-10.423-33.983-5.697 6.961 3.887 15.43 3.132 22.804 5.762-9.817 4.226-21.765 1.343-32.031 0.993-5.092-0.173-5.889-1.286-6.388 3.99-0.491 5.204-0.952 10.412-1.534 15.606-0.918 8.232-1.962 16.575-4.361 24.524 5.373 5.705 14.24 7.769 21.377 10.147 10.081 3.426 18.878 11.801 28.25 1.916 5.719-6.035 7.017-16.147 8.867-24.014 2.658-11.31 5.457-23.497-3.003-33.229-0.017-0.017 4.909 5.647 0 0zM178.591 326.415c0.033-1.297-0.049-2.594-0.246-3.891-0.049-0.361-0.131-0.739-0.214-1.149-0.115 0.065-0.214 0.131-0.328 0.214-0.017 0.017-0.033 0.017-0.033 0.033-0.115 0.082-0.214 0.181-0.312 0.279-3.563 3.382-5.582 15.63-11.69 12.248-2.873-1.593-3.218-6.075-3.431-8.947-0.312-4.17-0.065-8.34-0.049-12.51-3.037 2.758-3.924 7.601-4.22 11.476-0.345 4.449 0.017 9.375 2.085 13.397-3.792 1.855-5.434-1.904-8.111-3.661 0.542 3.94 2.184 7.831 5.746 9.9 3.694 2.118 8.323 1.264 11.821-0.821 5.894-3.53 8.882-9.965 8.981-16.565zM412.033 83.795c-10.31-0.214-20.686-0.115-30.964 0.772 2.988 3.236 8.851 3.267 12.872 3.053 3.284-0.132 6.585-0.591 9.803-1.281 2.545-0.558 5.352-1.131 7.716-2.297 0 0 0.033 0 0.082-0.034l0.033-0.017c0.146-0.065 0.31-0.132 0.458-0.197zM412.033 83.795c-10.31-0.214-20.686-0.115-30.964 0.772 2.988 3.236 8.851 3.267 12.872 3.053 3.284-0.132 6.585-0.591 9.803-1.281 2.545-0.558 5.352-1.131 7.716-2.297 0 0 0.033 0 0.082-0.034l0.033-0.017c0.146-0.065 0.31-0.132 0.458-0.197zM412.033 83.795c-10.31-0.214-20.686-0.115-30.964 0.772 2.988 3.236 8.851 3.267 12.872 3.053 3.284-0.132 6.585-0.591 9.803-1.281 2.545-0.558 5.352-1.131 7.716-2.297 0 0 0.033 0 0.082-0.034l0.033-0.017c0.146-0.065 0.31-0.132 0.458-0.197zM409.046 98.1c-4.579 1.566-9.534 2.375-14.364 2.51-4.267 0.12-10.522-0.097-13.152-4.103 9.144-0.851 18.438 0.627 27.516 1.592-4.991 1.707-7.567-0.805 0 0zM362.091 303.168c-7.322-3.464-14.121-8.012-21.836-10.622-2.167-0.739-4.384-1.33-6.632-1.74-1.1-0.197-2.218-0.361-3.349-0.476-0.887-0.099-0.774-0.853-0.856-1.675-0.214-2.019-0.148-4.055-0.048-6.074 0.048-0.985 0.113-1.954 0.195-2.939 0.034-0.459 0.065-0.903 0.115-1.346 0.526 0.017 1.050 0.033 1.576 0.065 7.553 0.476 14.531 3.497 20.046 8.702 4.712 4.433 8.192 9.966 11.197 15.646 0.164 0.296 0.329 0.575 0.476 0.87-0.292-0.132-0.589-0.279-0.885-0.411zM324.923 286.257c-0.084 0.755-0.18 1.511-0.329 2.249-0.148 0.772 0.033 1.067-0.821 1.051-1.412-0.033-2.84-0.066-4.27-0.082-5.449-0.066-10.901 0.033-16.352 0.394-5.073 0.361-10.146 0.886-15.137 1.904-2.101 0.427-4.17 0.936-6.223 1.576-2.2 0.656-4.187 1.855-6.337 2.544 3.005-8.061 11.527-12.445 19.243-14.891 8.191-2.577 16.91-3.596 25.513-3.546 0.458 0 0.92 0 1.363 0.017 0.345 0 0.706 0 1.082 0.016 0.856 0.017 1.707 0.050 2.563 0.099-0.017 2.889-0.002 5.795-0.296 8.668zM325.216 277.589c-0.936-0.050-1.789-0.082-2.563-0.099 0.856 0.017 1.709 0.049 2.563 0.099zM297.274 267.968c-10.161 1.724-19.931 6.337-24.002 16.401-0.017 0.033-0.017 0.049-0.033 0.082v0.016c-0.509 0.887-2.856 0.772-3.661 0.624-1.772-0.328-1.608-1.806-1.116-3.152 0.986-2.266 3.628-3.825 5.139-5.73 3.070-3.908 6.191-7.667 10.064-10.836 2.957-2.43 6.223-4.515 9.738-6.075 3.825-1.708 7.519-2.413 11.706-2.397 6.812 0.033 14.316 0.837 20.736 3.185 3.103 1.133 5.286 4.104 6.502 7.043-11.656-0.279-23.528-1.117-35.070 0.838zM363.257 377.161c-1.363 2.923-2.676 5.877-4.072 8.8-0.411 0.87-0.392 1.067-1.379 1.067-0.048-0.723-0.065-1.428-0.065-2.151 0-1.363 0.082-2.725 0.262-4.071 0.591-4.794 2.397-9.211 4.204-13.643 0.296-0.69 1.658-3.202 1-3.579-0.706-0.394-1.461-0.656-2.231-0.87-1.757-0.476-3.596-0.624-5.401-0.739-2.052-0.132-4.139-0.197-6.175-0.444-0.887-0.115-1.755-0.262-2.594-0.493-0.868-0.23-1.576-0.246-1.541-1.215 0.065-2.249 0.786-4.515 2.577-5.993 3.579-2.955 9.225-2.003 13.248-0.624 2.923 1.002 6.388 2.627 8.719 5.057 0.868 0.887 1.576 1.888 2.052 2.988-3.416 4.974-6.076 10.442-8.604 15.909zM292.546 353.767c0.997 2.796 0.895 5.719-0.83 8.194-1.368 1.962-3.368 3.314-4.974 5.051-5.137 5.551-6.7 13.301-10.233 19.805-2.437-6.85 1.949-15.37 5.089-21.279 1.131-2.131 2.353-4.213 3.625-6.264 0.682-1.096-2.85-2.373-3.755-2.607-3.714-0.962-7.721-0.12-11.406 0.572-1.991 0.374-3.985 0.773-6 0.978-1.072 0.109-1.31 0.166-1.814-0.804-0.279-0.537-0.514-1.099-0.676-1.683-0.56-2.014 0.033-3.95 1.582-5.339 3.774-3.382 10.159-3.748 14.95-3.621 2.471 0.065 5.183 0.241 7.526 1.101 2.354 0.863 6.040 3.411 6.916 5.895 2.479 6.945-0.575-1.625 0 0zM267.822 410.298c0.606 2.382-0.515 4.61-2.32 6.135-7.842 6.632-18.839 0.757-25.222-5.043-3.592-3.264-6.977-7.309-8.642-11.928-1.085-2.93-2.941-8.289 0.015-10.748 0.556-0.463 2.103-1.438 2.103-0.036 0.5 1.077 1.024 2.144 1.579 3.195 1.11 2.098 2.343 4.137 3.748 6.053 2.059 2.806 4.476 5.367 7.371 7.32 2.946 1.988 6.316 3.262 9.841 3.72 2.093 0.272 4.216 0.269 6.316 0.051 1.080-0.112 2.156-0.279 3.221-0.494 0.752-0.151 1.010-0.506 1.412 0.274 0.248 0.474 0.443 0.98 0.578 1.5 0.675 2.643-0.164-0.641 0 0zM400.969 114.468c-9.36-0.682-19.24-3.569-24.937-11.558 4.848-0.317 9.257 1.918 13.285 4.353 2.084 1.261 4.119 2.596 6.232 3.807 1.819 1.043 4.208 1.66 5.42 3.399-3.152-0.23-0.262-0.377 0 0zM357.411 325.955c-0.279 2.233-2.397 3.612-3.99 4.991-1.986 1.724-3.76 3.612-5.514 5.565-5.861 6.55-11.541 13.315-16.649 20.473-3.957 5.532-8.471 11.689-9.998 18.404-0.377 1.674-1.231 5.007-3.644 4.006-1.183-0.509-0.903-1.428-0.87-2.577 0.033-1.034 0.115-2.052 0.23-3.070 0.231-2.019 0.608-4.006 1.149-5.959 2.2-8.159 6.733-15.482 11.738-22.197 4.679-6.272 9.933-11.985 14.955-17.945 2.118-2.529 3.563-5.401 2.873-8.767-0.23-1.133-0.64-2.233-1.166-3.284-0.524-1.083-0.786-1.56-1.887-2.003-1.529-0.641-3.039-1.346-4.531-2.052-7.388-3.546-14.891-7.552-23.134-8.62-3.382-0.443-8.388-0.837-10.868 2.052-2.545 2.971-1.887 7.404-3.758 10.704-3.612-4.744-3.399-11.755-0.215-16.647 0.377-0.591 0.788-1.133 1.266-1.642 0.69-0.755 1.018-0.87 2.052-0.952 1.921-0.148 3.858-0.214 5.796-0.197 3.397 0.033 6.797 0.361 10.13 0.969 11.64 2.151 21.836 7.946 31.686 14.218 0.214 0.148 0.427 0.279 0.655 0.427 0.247 0.148 0.51 0.312 0.757 0.476-0.346 2.118 0.885 4.465 1.576 6.387 0.837 2.298 1.658 4.761 1.363 7.24zM313.118 176.855c-2.068 0-3.76-1.692-3.76-3.762 0-2.085 1.691-3.758 3.76-3.758 2.085 0 3.776 1.675 3.776 3.758 0 2.068-1.691 3.762-3.776 3.762zM316.878 159.418c-2.068 0-3.76-1.69-3.76-3.776 0-2.068 1.691-3.76 3.76-3.76 2.085 0 3.776 1.691 3.776 3.76 0 2.087-1.691 3.776-3.776 3.776z" />
<glyph unicode="&#xe61a;" glyph-name="brick" d="M512 352v-288h-512v288h64v46.129c0 9.872 8.049 17.871 17.982 17.871h108.073c9.896 0 17.945-7.999 17.945-17.871v-46.129h96v46.129c0 9.872 8.038 17.871 17.981 17.871h110.019c9.933 0 17.982-7.999 17.982-17.871v-46.129h62.018z" />
<glyph unicode="&#xe61b;" glyph-name="build-hand" horiz-adv-x="473" d="M185.238 80.442c0-1.123-0.436-2.204-1.239-3.007l-13.679-13.68-87.105 87.105 13.68 13.68c0.597 0.597 2.731 1.262 3.007 1.262 0.964 0 1.859-0.322 2.617-0.895 0.138-0.117 81.482-81.435 81.482-81.435 0.804-0.827 1.239-1.882 1.239-3.029zM182.3 41.54c0-1.147-0.459-2.204-1.262-3.009l-69.271-69.291c-0.803-0.783-1.859-1.24-3.007-1.24s-2.204 0.457-3.007 1.24l-104.549 104.572c-1.607 1.606-1.607 4.407 0 6.014l69.271 69.271c0.803 0.805 1.859 1.24 3.007 1.24 0.23 0 2.364-0.597 3.007-1.24l104.549-104.549c0.804-0.803 1.262-1.885 1.262-3.007zM473.82 233.377v-3.101c0-9.181-6.45-16.593-14.412-16.593l-170.033-39.662c0 0-36.334-28.739-48.249-37.438-10.26-7.459-15.47-14.802-29.081-14.802-0.827 0-8.905 0.62-10.168 0.824l-24.261-24.284-68.72 68.72 46.823 46.823 34.268 42.437c0 0 3.512 5.488 5.049 6.337 0.941 0.525 2.020 0.824 3.191 0.824h133.354c1.767 0 3.42-0.689 4.659-1.951 1.24-1.24 1.928-2.892 1.928-4.66v-12.968c0-1.744-0.688-3.394-1.928-4.657-1.24-1.239-2.894-1.928-4.659-1.928 0 0-83.754 0.092-84.993 0.092-2.617 0-4.728-2.114-4.728-4.751 0-2.594 1.469-4.567 5.807-4.567l-0.025-0.069h83.938c4.246 0 8.24 1.655 11.247 4.638 2.984 3.007 4.657 7 4.657 11.244v6.083h111.919c7.967 0 14.416-7.436 14.416-16.593zM472.742 444.493v-157.868h-322.851v157.868h38.308v24.171c0 6.264 5.072 11.337 11.339 11.337h81.275c6.243 0 11.315-5.072 11.315-11.337v-24.169h44.712v24.169c0 6.264 5.072 11.337 11.339 11.337h81.272c6.266 0 11.339-5.072 11.339-11.337v-24.169h31.952z" />
<glyph unicode="&#xe61c;" glyph-name="tag" d="M463.906 480h-144.281c-26.453 0-63.398-15.303-82.102-34.007l-223.495-223.495c-18.704-18.704-18.704-49.312 0-68.016l172.455-172.453c18.704-18.705 49.311-18.705 68.015 0l223.495 223.494c18.704 18.705 34.007 55.651 34.007 82.102v144.281c0 26.452-21.643 48.094-48.094 48.094zM400 320c-26.51 0-48 21.49-48 48s21.49 48 48 48 48-21.49 48-48-21.49-48-48-48z" />
<glyph unicode="&#xe61d;" glyph-name="compass" d="M252.723 476.135c-135.731-1.817-244.275-113.305-242.458-249.011 1.817-135.731 113.305-244.275 249.037-242.483 135.706 1.843 244.275 113.305 242.457 249.037-1.869 135.731-113.357 244.275-249.037 242.457zM258.586 36.403c-107.136-1.459-195.149 84.25-196.608 191.411-1.408 107.136 84.275 195.149 191.437 196.583 107.136 1.433 195.149-84.249 196.583-191.411s-84.25-195.123-191.411-196.583zM139.597 115.097c0 0 116.966 16.051 166.861 65.945s65.945 166.861 65.945 166.861-116.941-16.077-166.835-65.946c-49.894-49.92-65.971-166.861-65.971-166.861zM230.784 256.717c20.966 20.992 61.056 35.865 95.462 45.107-9.241-34.329-24.192-74.727-45.031-95.539-13.926-13.926-36.505-13.926-50.432 0-13.952 13.926-13.952 36.506 0 50.432z" />
<glyph unicode="&#xe61e;" glyph-name="flow-cascade" d="M358.4 112.64c-25.267 0-47.002-15.309-56.423-37.12h-84.377c-36.147 0-39.526 30.515-39.68 39.68v99.021c11.034-5.094 24.141-8.141 39.68-8.141h84.377c9.421-21.837 31.155-37.12 56.423-37.12 33.92 0 61.44 27.52 61.44 61.44s-27.52 61.44-61.44 61.44c-25.267 0-47.002-15.309-56.423-37.12h-84.377c-36.147 0-39.526 30.515-39.68 39.68v58.778c21.837 9.421 37.094 31.155 37.094 56.423 0 33.92-27.494 61.44-61.415 61.44s-61.44-27.52-61.44-61.44c0-25.267 15.309-46.976 37.12-56.423v-237.978c0-35.507 23.526-88.32 88.32-88.32h84.378c9.421-21.837 31.155-37.12 56.423-37.12 33.92 0 61.44 27.495 61.44 61.44 0 33.92-27.52 61.44-61.44 61.44zM358.4 265.856c19.584 0 35.456-15.872 35.456-35.456s-15.872-35.456-35.456-35.456-35.456 15.872-35.456 35.456 15.872 35.456 35.456 35.456zM118.144 409.6c0 19.584 15.872 35.456 35.456 35.456s35.456-15.872 35.456-35.456-15.872-35.456-35.456-35.456-35.456 15.872-35.456 35.456zM358.4 15.744c-19.584 0-35.456 15.872-35.456 35.456s15.872 35.456 35.456 35.456 35.456-15.872 35.456-35.456-15.872-35.456-35.456-35.456z" />
<glyph unicode="&#xe61f;" glyph-name="puzzle-piece" horiz-adv-x="476" d="M475.428 161.714q0-23.143-12.714-38.572t-35.286-15.428q-11.714 0-22.143 5t-16.857 10.857-16.143 10.857-20.286 5q-31.428 0-31.428-35.428 0-11.143 4.572-32.857t4.286-32.857v-1.428q-6.286 0-9.428-0.286-9.714-0.857-27.857-3.286t-33-3.857-28-1.428q-17.428 0-29.428 7.572t-12 23.857q0 10.572 5 20.286t10.857 16.143 10.857 16.857 5 22.143q0 22.572-15.428 35.286t-38.572 12.714q-24 0-40.857-13t-16.857-36.428q0-12.286 4.285-23.714t9.572-18.428 9.571-15.143 4.286-14.428q0-12.857-13.143-25.428-10.572-10-33.428-10-27.143 0-70 6.857-2.572 0.572-7.857 1.143t-7.857 1.143l-3.715 0.572q-0.285 0-0.857 0.286-0.572 0-0.572 0.286v292.572q0.572-0.286 5-1t9.714-1.429 6.143-1q42.857-6.857 70-6.857 22.857 0 33.428 10 13.143 12.572 13.143 25.428 0 6.286-4.286 14.428t-9.572 15.143-9.572 18.428-4.285 23.714q0 23.429 16.857 36.429t41.143 13q22.857 0 38.286-12.715t15.428-35.285q0-11.715-5-22.143t-10.857-16.857-10.857-16.143-5-20.286q0-16.285 12-23.857t29.428-7.572q18.286 0 51.428 4.286t46.572 4.857v-0.571q-0.286-0.572-1-5t-1.428-9.714-1-6.143q-6.857-42.857-6.857-70 0-22.857 10-33.428 12.572-13.143 25.428-13.143 6.286 0 14.428 4.286t15.143 9.572 18.428 9.572 23.714 4.286q23.428 0 36.428-16.857t13-40.857z" />
<glyph unicode="&#xe620;" glyph-name="menu" d="M-0.375 416h480.023v-64h-480.023v64zM0.375 96h255.125v-64h-255.125v64zM-0.023 256h480.023v-64h-480.023v64zM510.209 128l-110.513-161.32-110.515 161.32z" />
<glyph unicode="&#xe621;" glyph-name="brick-menu" horiz-adv-x="476" d="M473.731 151.611l-126.3-184.365-126.304 184.365h252.605zM475.215 352v-160h-267.215c-16 0-16-12.685-16-16v-112h-191.785v288h59.375v46.13c0 9.87 7.465 17.87 16.68 17.87h100.265c9.18 0 16.65-8 16.65-17.87v-46.13h89.060v46.13c0 9.87 7.46 17.87 16.68 17.87h102.070c9.215 0 16.685-8 16.685-17.87v-46.13h57.535z" />
<glyph unicode="&#xe622;" glyph-name="folder-menu" horiz-adv-x="476" d="M456.572 351.428c-12.572 12.572-27.623 18.857-45.143 18.857h-192v9.143c0 17.52-6.286 32.572-18.857 45.143s-27.623 18.857-45.143 18.857h-91.428c-17.52 0-32.572-6.285-45.143-18.857s-18.857-27.623-18.857-45.143v-274.285c0-17.52 6.285-32.572 18.857-45.143s27.623-18.857 45.143-18.857h118.857v36.572h-118.857c-7.623 0-14.091 2.663-19.428 8s-8 11.805-8 19.428v274.286c0 7.623 2.663 14.091 8 19.428s11.806 8 19.428 8h91.429c7.623 0 14.091-2.663 19.428-8s8-11.805 8-19.428v-18.286c0-7.623 2.663-14.091 8-19.428s11.805-8 19.428-8h201.143c7.623 0 14.091-2.663 19.428-8s8-11.805 8-19.428v-118.857h36.572v118.857c0 17.52-6.286 32.572-18.857 45.143zM473.731 151.611l-126.3-184.365-126.304 184.365z" />
<glyph unicode="&#xe623;" glyph-name="checkbox-checked" d="M0 480v-512h512v512h-512zM480 0h-448v448h448v-448zM384 368l-160-160-96 96-64-64 160-160 224 224-64 64z" />
<glyph unicode="&#xe624;" glyph-name="gear" horiz-adv-x="448" d="M223.969 305c-44.703 0-80.969-36.265-80.969-81 0-44.688 36.266-81.031 80.969-81.031 44.719 0 80.719 36.344 80.719 81.031-0 44.735-36 81-80.719 81zM386.313 177.469l-14.594-35.156 29.469-57.875-36.094-36.094-59.218 27.969-35.156-14.438-17.844-54.625-2.281-7.25h-51.016l-22.078 61.656-35.156 14.5-57.952-29.344-36.078 36.063 27.938 59.25-14.484 35.125-61.767 20.156v50.984l61.703 22.109 14.485 35.094-25.953 51.234-3.422 6.719 36.031 36.031 59.297-27.922 35.109 14.516 17.828 54.594 2.297 7.234h51l22.094-61.735 35.063-14.515 58.031 29.406 36.063-36.031-27.938-59.203 14.438-35.173 61.875-20.125v-50.969l-61.688-22.187z" />
<glyph unicode="&#xe625;" glyph-name="cog" d="M292.572 219.429q0 30.286-21.428 51.714t-51.714 21.428-51.714-21.428-21.428-51.714 21.428-51.714 51.714-21.428 51.714 21.428 21.428 51.714zM438.857 250.572v-63.428q0-3.428-2.286-6.572t-5.714-3.714l-52.857-8q-5.428-15.428-11.143-26 10-14.286 30.572-39.428 2.857-3.428 2.857-7.143t-2.572-6.572q-7.714-10.572-28.286-30.857t-26.857-20.286q-3.428 0-7.428 2.572l-39.428 30.857q-12.572-6.572-26-10.857-4.572-38.857-8.286-53.143-2-8-10.286-8h-63.428q-4 0-7 2.428t-3.286 6.143l-8 52.572q-14 4.572-25.714 10.572l-40.285-30.572q-2.857-2.572-7.143-2.572-4 0-7.143 3.143-36 32.572-47.143 48-2 2.857-2 6.572 0 3.428 2.285 6.572 4.285 6 14.572 19t15.428 20.143q-7.715 14.286-11.715 28.286l-52.285 7.714q-3.715 0.572-6 3.572t-2.285 6.714v63.428q0 3.428 2.285 6.572t5.428 3.714l53.143 8q4 13.143 11.143 26.286-11.428 16.286-30.572 39.428-2.857 3.428-2.857 6.857 0 2.857 2.572 6.572 7.428 10.286 28.143 30.714t27 20.428q3.715 0 7.428-2.857l39.428-30.572q12.572 6.572 26 10.857 4.572 38.857 8.286 53.143 2 8 10.286 8h63.428q4 0 7-2.428t3.286-6.143l8-52.571q14-4.572 25.714-10.572l40.572 30.572q2.572 2.571 6.857 2.571 3.714 0 7.143-2.857 36.857-34 47.143-48.572 2-2.286 2-6.286 0-3.428-2.286-6.571-4.286-6-14.572-19t-15.428-20.143q7.428-14.286 11.714-28l52.286-8q3.714-0.571 6-3.571t2.286-6.714z" />
<glyph unicode="&#xe626;" glyph-name="gear-menu" d="M259.67 152.365l126.305-184.365 126.3 184.365h-252.605zM378.24 242.045c0.25-3.51 0.38-7.050 0.38-10.625 0-13.635-1.895-26.775-5.105-39.42h-79.225c6.16 11.795 9.645 25.215 9.645 39.44 0 45.61-35.795 82.87-80.82 85.22-0.335 0.015-3.035 0.095-4.055 0.095-47.125 0-85.335-38.23-85.335-85.355 0-45.61 35.795-82.87 80.82-85.219 0.155-0.005 3.45 0.11 7.2 0.28l40.025-58.425v-80.615h-85.38v69.93c-26.56 7.34-50.385 21.225-69.48 40.020l-0.27-0.156-60.21-34.764-0.125 0.215-42.565 73.705 60.565 34.985c-2.47 9.515-4.175 19.34-4.885 29.44-0.25 3.51-0.38 7.050-0.38 10.625 0 13.865 1.96 27.22 5.265 40.065l-60.565 34.965 42.69 73.94 60.5-34.92c18.975 18.65 42.6 32.505 68.96 39.875 0.165 0.050 0.335 0.1 0.505 0.145v69.93h84.875v-69.93c26.56-7.34 50.385-21.225 69.48-40.020l0.27 0.155c0.065-0.055 0.125-0.12 0.19-0.18l60.145 34.73 42.565-73.705-60.565-34.985c2.47-9.515 4.175-19.34 4.885-29.44z" />
<glyph unicode="&#xe627;" glyph-name="gear-menu-o" d="M259.17 152.365l126.305-184.365 126.3 184.365h-252.605zM274.030-12.5h-85.38c-6.904 0-12.5 5.596-12.5 12.5v60.693c-21.643 7.298-41.661 18.825-58.725 33.817l-52.485-30.305c-5.968-3.445-13.599-1.411-17.060 4.548l-0.125 0.216-42.58 73.731c-3.452 5.978-1.405 13.623 4.572 17.075l52.552 30.356c-1.535 7.506-2.571 14.997-3.089 22.368-0.272 3.821-0.41 7.695-0.41 11.502 0 11.061 1.179 22.413 3.511 33.861l-52.561 30.344c-2.871 1.657-4.966 4.387-5.824 7.59s-0.409 6.615 1.249 9.486l42.69 73.94c3.451 5.978 11.095 8.027 17.074 4.576l52.511-30.308c17.087 15 37.105 26.532 58.706 33.816v60.696c0 6.904 5.596 12.5 12.5 12.5h84.875c6.904 0 12.5-5.596 12.5-12.5v-60.692c21.726-7.326 41.817-18.916 58.923-33.991l52.411 30.264c5.978 3.452 13.623 1.404 17.075-4.573l42.565-73.705c3.452-5.978 1.406-13.623-4.572-17.075l-52.552-30.356c1.535-7.506 2.571-14.996 3.089-22.368 0.272-3.822 0.411-7.696 0.411-11.501 0-9.415-0.85-19.054-2.526-28.651-1.045-5.983-6.24-10.349-12.313-10.349h-76.55c-4.005 0-7.768 1.92-10.119 5.162s-3.007 7.415-1.762 11.222c2.38 7.278 3.586 14.894 3.586 22.636 0 38.745-30.262 70.679-68.904 72.734-0.501 0.019-2.781 0.082-3.471 0.082-40.161 0-72.835-32.683-72.835-72.855 0-35.805 26.656-66.774 62.005-72.036 3.438-0.512 6.507-2.432 8.471-5.299l55.38-80.835c1.425-2.080 2.188-4.543 2.188-7.065v-58.745c0-6.904-5.596-12.5-12.5-12.5zM201.15 12.5h60.38v42.374l-50.237 73.327c-20.808 4.339-39.755 15.43-53.827 31.615-15.464 17.786-23.981 40.573-23.981 64.164 0 53.957 43.888 97.855 97.835 97.855 1.237 0 4.123-0.086 4.611-0.107 0.032-0.002 0.064-0.003 0.096-0.005 51.963-2.712 92.668-45.628 92.668-97.703 0-4.714-0.334-9.397-0.999-14.020h49.962c0.48 4.709 0.721 9.39 0.721 14 0 3.216-0.117 6.492-0.348 9.737-0.627 8.915-2.146 18.058-4.515 27.188-1.412 5.44 0.98 11.154 5.846 13.964l49.742 28.734-30.063 52.058-49.321-28.48c-2.224-1.285-4.719-1.822-7.159-1.642-3.047 0.11-6.032 1.332-8.32 3.584-17.726 17.447-39.871 30.2-64.041 36.88-5.418 1.497-9.171 6.427-9.171 12.048v57.43h-59.875v-57.43c0-5.667-3.811-10.624-9.287-12.080l-0.093-0.028c-0.086-0.026-0.173-0.052-0.259-0.076-23.929-6.69-45.909-19.398-63.564-36.752-4.005-3.937-10.146-4.719-15.011-1.911l-49.675 28.672-30.191-52.291 49.74-28.715c4.859-2.805 7.254-8.506 5.856-13.94-3.278-12.738-4.87-24.825-4.87-36.95 0-3.217 0.117-6.493 0.348-9.737 0.626-8.914 2.146-18.057 4.516-27.188 1.412-5.44-0.98-11.154-5.847-13.964l-49.742-28.733 30.188-52.274 49.675 28.681c4.865 2.798 11 2.010 15-1.928 17.726-17.447 39.871-30.2 64.041-36.88 5.418-1.497 9.171-6.427 9.171-12.048v-57.43z" />
<glyph unicode="&#xe628;" glyph-name="console" d="M0 448v-448h512v448h-512zM480 32h-448v384h448v-384zM448 384h-384v-320h384v320zM224 224h-32v-32h-32v-32h-32v32h32v32h32v32h-32v32h-32v32h32v-32h32v-32h32v-32zM352 160h-96v32h96v-32z" />
<glyph unicode="&#xe629;" glyph-name="file-css" d="M192 174.277v57.113c0 7.564 3.348 14.718 9.427 20.143 6.080 5.424 14.096 8.413 22.573 8.413v28.555c-35.2 0-64-25.7-64-57.111v-42.833c0-7.886-7.164-14.279-16-14.279h-16v-28.555h16c8.837 0 16-6.395 16-14.279v-42.838c0-31.407 28.8-57.107 64-57.107v28.556c-8.477 0-16.494 2.988-22.573 8.413s-9.427 12.577-9.427 20.139v57.117c0 7.885-7.164 14.277-16 14.277 8.837-0.001 16 6.394 16 14.276zM320 145.723v-57.117c0-7.562-3.348-14.713-9.427-20.139s-14.095-8.413-22.573-8.413v-28.556c35.201 0 64 25.7 64 57.107v42.838c0 7.886 7.164 14.279 16 14.279h16v28.555h-16c-8.836 0-16 6.395-16 14.279v42.834c0 31.412-28.799 57.111-64 57.111v-28.555c8.479 0 16.494-2.989 22.573-8.415 6.080-5.424 9.427-12.578 9.427-20.142v-57.114c0-7.883 7.164-14.276 16-14.276-8.836 0.001-16-6.394-16-14.276zM451.716 380.285l-71.432 71.431c-15.556 15.556-46.284 28.284-68.284 28.284h-240c-22 0-40-18-40-40v-432c0-22 18-40 40-40h368c22 0 40 18 40 40v304c0 22-12.728 52.729-28.284 68.285zM429.089 357.657c1.565-1.565 3.125-3.487 4.64-5.657h-81.729v81.728c2.17-1.515 4.092-3.075 5.657-4.64l71.432-71.431zM448 8c0-4.336-3.664-8-8-8h-368c-4.336 0-8 3.664-8 8v432c0 4.336 3.664 8 8 8h240c2.416 0 5.127-0.305 8-0.852v-127.148h127.148c0.547-2.873 0.852-5.583 0.852-8v-304z" />
<glyph unicode="&#xe62a;" glyph-name="service" horiz-adv-x="516" d="M175.222 72.202l-13.047-13.026-82.94 82.916 13.047 13.050c0.568 0.568 5.595 0.11 5.726 0l1.661-1.663 75.553-75.55c0.765-0.765 0.765-4.961 0-5.726zM173.583 38c0-1.093-0.415-2.098-1.18-2.863l-65.959-65.959c-0.765-0.767-1.792-1.18-2.863-1.18-1.093 0-2.098 0.413-2.863 1.18l-99.572 99.55c-1.53 1.53-1.53 4.218 0 5.748l65.959 65.936c0.765 0.765 1.792 1.202 2.885 1.202 0.197 0 0.415-0.022 0.634-0.065 0.831-0.131 1.618-0.522 2.207-1.137l0.35-0.328 99.222-99.222c0.765-0.765 1.18-1.771 1.18-2.863zM515.285 266.459v-13.316c0-4.664-3.779-8.453-8.456-8.453h-175.966v0.536c0 3.536-1.197 4.69-3.399 7.382-0.325 0.395-0.664 0.762-1.027 1.127-2.865 2.861-6.655 4.439-10.7 4.439h-126.978c-5.862 0-10.947-3.352-13.456-8.243-0.534-1.014-1.679-3.435-1.679-4.703v-0.536h-53.987c-4.679 0-8.456 3.79-8.456 8.453v13.317c0 4.681 3.778 8.455 8.456 8.455h387.191c4.679-0.002 8.456-3.776 8.456-8.458zM314.325 455.404c-97.22 0-176.571-76.481-181.183-172.563h362.365c-4.613 96.082-83.96 172.563-181.183 172.563zM334.425 461.978c-1.097 10.134-9.675 18.022-20.1 18.022-10.427 0-19.003-7.887-20.1-18.022 6.531 1.125 13.248 1.711 20.1 1.711s13.565-0.586 20.1-1.711zM451.186 220.688v-2.973c0-8.72-6.163-15.799-13.747-15.799l-161.88-37.767c0 0-34.596-27.341-45.961-35.623-9.748-7.103-14.709-14.118-27.69-14.118-0.765 0-8.48 0.592-9.66 0.787l-23.123-23.101-65.412 65.434 44.563 44.563 34.444 42.661c0.459 1.618 1.552 2.994 2.994 3.781 0.896 0.524 1.923 0.787 3.038 0.787h126.998c1.663 0 3.257-0.655 4.437-1.836s1.836-2.754 1.836-4.436v-12.348c0-1.683-0.656-3.256-1.836-4.436s-2.776-1.857-4.437-1.857c0 0-79.771 0.088-80.929 0.088-2.492 0-4.524-2.011-4.524-4.502 0-2.493 1.399-4.371 5.53-4.371l-0.022-0.065h79.945c4.046 0 7.824 1.593 10.69 4.437 2.863 2.863 4.437 6.666 4.437 10.709v5.769h106.565c7.606-0.002 13.747-7.061 13.747-15.779z" />
<glyph unicode="&#xe62b;" glyph-name="service-o" horiz-adv-x="515" d="M94.246 155.42c-0.947 0-1.753-0.068-1.96-0.277l-13.047-13.050 82.94-82.916 13.048 13.026c0.765 0.765 0.765 4.961 0 5.726l-77.214 77.214c-0.085 0.070-2.131 0.277-3.766 0.277v0zM69.98 118.562l80.562-80.56-46.96-46.96-80.579 80.56 46.977 46.96zM69.99 141.614c-1.093 0-2.12-0.437-2.885-1.202l-65.959-65.936c-1.53-1.53-1.53-4.218 0-5.748l99.572-99.55c0.765-0.767 1.77-1.18 2.863-1.18 1.071 0 2.098 0.413 2.863 1.18l65.959 65.959c0.765 0.765 1.18 1.771 1.18 2.863s-0.415 2.098-1.18 2.865l-99.572 99.55c-0.59 0.612-1.377 1.005-2.207 1.137-0.219 0.041-0.437 0.063-0.634 0.063v0zM506.829 274.914h-387.19c-4.679 0-8.456-3.776-8.456-8.455v-13.316c0-4.664 3.778-8.453 8.456-8.453h53.987v0.536c0 1.268 1.143 3.689 1.679 4.703 2.509 4.891 7.597 8.244 13.456 8.244h126.982c4.046 0 7.835-1.58 10.7-4.439 0.363-0.365 0.7-0.732 1.027-1.127 2.201-2.691 3.399-3.846 3.399-7.382v-0.536h175.966c4.679 0 8.455 3.79 8.455 8.453v13.316c-0.005 4.684-3.781 8.458-8.46 8.458v0zM314.325 437.921c81.382 0 149.224-59.109 161.817-137.595h-323.636c12.593 78.486 80.435 137.595 161.819 137.595zM314.325 455.404c-97.22 0-176.571-76.481-181.183-172.563h362.365c-4.613 96.082-83.96 172.563-181.183 172.563v0zM314.325 480c-10.427 0-19.003-7.887-20.1-18.022 6.531 1.125 13.248 1.711 20.1 1.711s13.565-0.588 20.098-1.711c-1.095 10.134-9.673 18.022-20.098 18.022v0zM216.288 231.832c-2.198-3.421-3.475-7.488-3.475-11.846 0-10.272 7.070-20.664 20.62-21.759 0.78-0.107 1.571-0.161 2.371-0.161h79.945c8.654 0 16.824 3.379 23.053 9.557 3.285 3.285 5.783 7.149 7.4 11.356h87.442c-0.057-0.013-0.118-0.026-0.175-0.039l-161.88-37.767c-2.505-0.586-4.852-1.716-6.869-3.311-0.343-0.271-34.459-27.223-45.417-35.209-2.52-1.838-4.692-3.606-6.607-5.166-5.831-4.749-7.046-5.553-10.466-5.597-1.521 0.087-6.22 0.461-7.451 0.601-0.844 0.125-1.69 0.183-2.531 0.183-4.594 0-9.053-1.814-12.357-5.116l-10.757-10.746-40.697 40.709 32.201 32.199c0.44 0.44 0.852 0.901 1.242 1.384l32.883 40.729h21.523zM315.75 249.316h-127c-1.114 0-2.142-0.262-3.038-0.787-1.442-0.787-2.535-2.163-2.994-3.781l-1.814-2.251-7.278-9.005-25.352-31.405-44.563-44.563 65.412-65.434 23.123 23.101c1.18-0.197 8.895-0.787 9.66-0.787 12.982 0 17.943 7.015 27.69 14.118 11.364 8.283 45.961 35.623 45.961 35.623l161.88 37.767c7.584 0 13.747 7.079 13.747 15.799v2.973c0 8.718-6.144 15.777-13.747 15.777h-106.565v-5.769c0-4.043-1.575-7.846-4.437-10.709-2.865-2.844-6.644-4.437-10.69-4.437l-79.924 0.065c-4.131 0-5.53 1.877-5.53 4.371 0 2.491 2.032 4.502 4.524 4.502 1.159 0 80.929-0.088 80.929-0.088 1.663 0 3.257 0.678 4.437 1.857s1.836 2.754 1.836 4.436v12.348c0 1.683-0.656 3.256-1.836 4.436s-2.774 1.838-4.435 1.838v0z" />
<glyph unicode="&#xe62c;" glyph-name="brick-menu-o" horiz-adv-x="476" d="M473.731 151.611l-126.3-184.365-126.304 184.365h252.605zM417.68 352v46.13c0 9.87-7.47 17.87-16.685 17.87h-102.070c-9.219 0-16.68-8-16.68-17.87v-46.13h-89.060v46.13c0 9.87-7.47 17.87-16.65 17.87h-100.265c-9.215 0-16.68-8-16.68-17.87v-46.13h-59.375v-288h191.785v112c0 3.315 0 16 16 16h267.215v160h-57.535zM443.215 224h-235.215c-28.26 0-48-19.74-48-48v-80h-127.785v224h59.375v64h69.595v-64h153.060v64h71.435v-64h57.535v-96z" />
<glyph unicode="&#xe62d;" glyph-name="brick-o" d="M449.98 352v46.13c0 9.87-8.045 17.87-17.98 17.87h-110.020c-9.94 0-17.98-8-17.98-17.87v-46.13h-96v46.13c0 9.87-8.050 17.87-17.945 17.87h-108.075c-9.93 0-17.98-8-17.98-17.87v-46.13h-64v-288h512v288h-62.020zM480 96h-448v224h64v64h80v-64h160v64h81.98v-64h62.020v-224z" />
<glyph unicode="&#xe62e;" glyph-name="quill" d="M192 186.667c0 0 101.972 61.18 159.383 37.013 11.901 18.134 23.624 37.668 35.101 57.611-56.163 13.76-130.484 1.376-130.484 1.376s95.106 57.061 153.333 39.2c11.675 21.054 23.027 41.821 33.978 61.152-46.388 3.134-91.311-4.352-91.311-4.352s59.574 35.744 113.289 41.799c16.899 27.43 32.585 48.94 46.711 59.534-280.5 0-448-320-512-512h32l96 160c0 0 32-32 128 0 22.737 7.579 45.474 28.626 67.786 56.967-56.308 14.277-131.786 1.7-131.786 1.7z" />
<glyph unicode="&#xe62f;" glyph-name="feather-o" d="M97.738-25.6c-0.001 0-0.001 0-0.003 0-6.425 0.001-12.822 2.8-17.552 7.683-5.591 5.772-8.511 14.005-8.221 23.182 0.003 0.091 0.007 0.182 0.011 0.274 1.368 25.492 9.78 69.952 23.377 108.195-17.982 28.649-28.432 55.733-31.905 82.63-3.13 24.244-0.711 48.521 7.612 76.401 1.55 5.192 6.286 8.781 11.704 8.871s10.269-3.343 11.99-8.481c4.308-12.87 13.127-32.596 22.47-50.255 2.974-5.621 5.673-10.421 8.092-14.495-0.379 4.404-0.796 8.909-1.187 13.13-4.359 47.11-10.947 118.301 9.019 159.118 16.597 33.972 67.887 73.036 97.35 86.085 4.847 2.147 10.525 0.982 14.137-2.904 3.609-3.885 4.357-9.632 1.861-14.311-9.137-17.12-15.168-36.519-16.983-54.625-0.936-9.346-0.559-16.143 0.177-20.755 5.694 8.012 13.46 20.885 19.643 31.133 28.709 47.583 49.236 78.92 72.070 80.898 1.717 0.15 3.533 0.227 5.385 0.227 16.769 0 38.895-6.298 60.707-17.279 10.471-5.271 35.666-19.292 43.474-35.596 7.2-14.905 2.984-37.882 0.837-47.067-4.587-19.621-13.185-36.678-23.587-46.795-26.436-25.743-65.371-31.232-96.654-35.644-10.114-1.426-19.846-2.798-27.062-4.671 5.93-4.688 18.47-10.827 41.154-10.826 10.693 0.001 22.488 1.407 35.056 4.18 5.009 1.106 10.182-0.981 13.024-5.25 2.841-4.271 2.767-9.848-0.185-14.041-20.65-29.321-47.303-50.632-79.219-63.337-26.513-10.555-51.254-13.13-67.626-14.834-1.459-0.152-3.010-0.313-4.542-0.483 8.328-7.010 24.050-15.676 40.672-15.676 4.139 0 8.071 0.562 11.69 1.669 4.853 1.483 10.123-0.132 13.311-4.082 3.188-3.952 3.65-9.444 1.17-13.874-16.89-30.164-32.69-48.037-51.228-57.95-17.642-9.434-35.829-10.684-56.888-12.13-9.308-0.639-19.635-1.349-31.040-2.852-8.387-26.837-15.594-49.13-21.483-67.344-4.175-12.916-7.782-24.070-10.764-33.609-2.778-8.82-10.57-14.507-19.859-14.507zM87.296 227.028c-2.109-29.084 4.554-62.727 32.237-104.961 2.175-3.319 2.635-7.478 1.237-11.192-15.196-40.365-22.496-84.094-23.876-104.986 2.328 7.3 4.937 15.372 7.816 24.276 6.408 19.822 14.384 44.49 23.731 74.56 1.404 4.517 5.25 7.846 9.922 8.586 15.544 2.464 28.971 3.386 40.815 4.2 34.123 2.344 52.413 3.603 75.644 37.154-23.163 2.509-44.969 15.358-55.698 28.068-6.1 7.225-8.61 14.308-7.463 21.053 0.846 4.908 4.254 11.276 15.709 13.883 4.432 1.010 9.87 1.575 16.756 2.292 25.876 2.693 70.545 7.34 108.668 43.876-2.417-0.113-4.8-0.168-7.142-0.17-41.567-0.002-65.162 17.656-69.494 34.064-2.202 8.341 0.825 16.256 7.711 20.163 10.522 5.984 26.137 8.186 44.219 10.735 27.7 3.906 62.173 8.766 82.791 28.844 16.327 15.88 22.523 55.264 17.687 65.278-2.497 5.213-14.364 15.163-32.252 24.168-17.917 9.020-36.896 14.624-49.531 14.624-1.132 0-2.219-0.045-3.229-0.133-0.68-0.059-6.983-1.134-21.762-20.75-10.465-13.889-21.471-32.133-31.183-48.227-22.072-36.583-30.341-49.236-42.839-49.238-0.001 0-0.003 0-0.005 0-0.314 0-0.62 0.010-0.929 0.029-4.018 0.255-11.506 2.090-16.778 11.546-7.481 13.416-6.314 34.316-4.952 45.582 0.838 6.933 2.382 15.684 5.202 25.601-22.099-15.758-45.721-37.567-54.834-56.219-16.904-34.556-10.702-101.568-6.6-145.911 1.189-12.85 2.217-23.948 2.495-32.25 0.278-8.266 0.698-20.758-9.084-25.407-2.015-0.959-4.191-1.449-6.46-1.45-9.025-0.002-15.989 7.738-21.613 15.308-4.841 6.519-10.322 15.358-16.288 26.274-3.62 6.623-7.233 13.685-10.631 20.728z" />
<glyph unicode="&#xe630;" glyph-name="arrow-shuffle" d="M85.334 277.333h74.666c15.702 0 29.718-8.341 39.488-21.355 6.934 12.885 15.552 24.81 25.408 35.456-17.131 17.558-39.808 28.565-64.896 28.565h-74.666c-11.797 0-21.334-9.558-21.334-21.333s9.536-21.334 21.334-21.334zM249.28 210.965c11.754 35.35 48.128 66.368 77.845 66.368h39.211l-27.584-27.584c-8.341-8.341-8.341-21.824 0-30.166 4.16-4.16 9.622-6.25 15.082-6.25s10.923 2.091 15.082 6.25l79.082 79.083-79.082 79.082c-8.341 8.341-21.824 8.341-30.166 0s-8.341-21.824 0-30.166l27.584-27.584h-39.211c-48.512 0-100.501-41.962-118.336-95.552l-10.070-30.102c-13.674-41.088-44.202-66.346-60.053-66.346h-53.334c-11.797 0-21.334-9.558-21.334-21.334s9.536-21.334 21.334-21.334h53.334c39.19 0 82.411 41.067 100.544 95.552l10.070 30.080zM338.752 185.749c-8.341-8.341-8.341-21.824 0-30.166l27.584-27.584h-49.877c-27.050 0-49.707 19.008-57.408 44.971-5.462-16-13.376-31.978-23.254-46.613 18.901-24.789 47.85-41.024 80.662-41.024h49.877l-27.584-27.584c-8.341-8.341-8.341-21.824 0-30.166 4.16-4.16 9.622-6.25 15.082-6.25s10.923 2.091 15.082 6.25l79.082 79.082-79.082 79.082c-8.341 8.341-21.824 8.341-30.166 0z" />
<glyph unicode="&#xe631;" glyph-name="arrow-right" d="M283.584 313.749c-8.341-8.341-8.341-21.824 0-30.165l48.918-48.918h-161.834c-11.776 0-21.334-9.558-21.334-21.334s9.558-21.334 21.334-21.334h161.834l-48.918-48.918c-8.341-8.341-8.341-21.824 0-30.166 4.16-4.16 9.622-6.25 15.082-6.25s10.923 2.091 15.082 6.25l100.416 100.416-100.416 100.416c-8.341 8.341-21.824 8.341-30.166 0z" />
</font>
</defs>
</svg>
